22:00:17 - update queue_status set stat_last_update=NOW(), type_cnt = 45, type_loop_cnt = 497 where type_val = 'V7'
22:00:17 - Curl Response - {"code":200,"status":"Success:PostServerProcessDetails Posted For IP [209.59.156.167] and Process [V7]"}
22:00:17 - Contents - /postServerProcessDetails/ - Success:PostServerProcessDetails Posted For IP [209.59.156.167] and Process [V7] - 200
22:00:17 - ========== 45  - 268 mins 358.66577777778 Video Process / Start:2024-06-24 15:36:02 / Mod:6/16======
22:00:32 - Fetching  Video Jobs Mod Val : 6 Mod Limit : 16 Queue ID : 0 

22:00:32 - ========select * from message_remote_queue, hvo_data where queue_id%16 = 6 and image = 1 and video = 0 and error = 0 and hvo_queue_id = queue_id   order by high_priority_row desc, queue_id asc limit 1==================count =0
22:00:32 - update queue_status set stat_last_update=NOW(), type_cnt = 45, type_loop_cnt = 498 where type_val = 'V7'
22:00:32 - Curl Response - {"code":200,"status":"Success:PostServerProcessDetails Posted For IP [209.59.156.167] and Process [V7]"}
22:00:32 - Contents - /postServerProcessDetails/ - Success:PostServerProcessDetails Posted For IP [209.59.156.167] and Process [V7] - 200
22:00:32 - ========== 45  - 268 mins 358.66577777778 Video Process / Start:2024-06-24 15:36:02 / Mod:6/16======
22:00:47 - Fetching  Video Jobs Mod Val : 6 Mod Limit : 16 Queue ID : 0 

22:00:47 - ========select * from message_remote_queue, hvo_data where queue_id%16 = 6 and image = 1 and video = 0 and error = 0 and hvo_queue_id = queue_id   order by high_priority_row desc, queue_id asc limit 1==================count =0
22:00:47 - update queue_status set stat_last_update=NOW(), type_cnt = 45, type_loop_cnt = 499 where type_val = 'V7'
22:00:47 - Curl Response - {"code":200,"status":"Success:PostServerProcessDetails Posted For IP [209.59.156.167] and Process [V7]"}
22:00:47 - Contents - /postServerProcessDetails/ - Success:PostServerProcessDetails Posted For IP [209.59.156.167] and Process [V7] - 200
22:00:47 - ========== 45  - 268 mins 358.66577777778 Video Process / Start:2024-06-24 15:36:02 / Mod:6/16======
22:01:02 - Fetching  Video Jobs Mod Val : 6 Mod Limit : 16 Queue ID : 0 

22:01:02 - ========select * from message_remote_queue, hvo_data where queue_id%16 = 6 and image = 1 and video = 0 and error = 0 and hvo_queue_id = queue_id   order by high_priority_row desc, queue_id asc limit 1==================count =0
22:01:02 - update queue_status set stat_last_update=NOW(), type_cnt = 45, type_loop_cnt = 500 where type_val = 'V7'
22:01:03 - Curl Response - {"code":200,"status":"Success:PostServerProcessDetails Posted For IP [209.59.156.167] and Process [V7]"}
22:01:03 - Contents - /postServerProcessDetails/ - Success:PostServerProcessDetails Posted For IP [209.59.156.167] and Process [V7] - 200
22:01:03 - ========== 45  - 268 mins 358.66577777778 Video Process / Start:2024-06-24 15:36:02 / Mod:6/16======
22:01:18 - Fetching  Video Jobs Mod Val : 6 Mod Limit : 16 Queue ID : 0 

22:01:18 - ========select * from message_remote_queue, hvo_data where queue_id%16 = 6 and image = 1 and video = 0 and error = 0 and hvo_queue_id = queue_id   order by high_priority_row desc, queue_id asc limit 1==================count =0
22:01:18 - update queue_status set stat_last_update=NOW(), type_cnt = 45, type_loop_cnt = 501 where type_val = 'V7'
22:01:18 - Curl Response - {"code":200,"status":"Success:PostServerProcessDetails Posted For IP [209.59.156.167] and Process [V7]"}
22:01:18 - Contents - /postServerProcessDetails/ - Success:PostServerProcessDetails Posted For IP [209.59.156.167] and Process [V7] - 200
22:01:18 - ========== 45  - 268 mins 358.66577777778 Video Process / Start:2024-06-24 15:36:02 / Mod:6/16======
22:01:33 - Fetching  Video Jobs Mod Val : 6 Mod Limit : 16 Queue ID : 0 

22:01:33 - ========select * from message_remote_queue, hvo_data where queue_id%16 = 6 and image = 1 and video = 0 and error = 0 and hvo_queue_id = queue_id   order by high_priority_row desc, queue_id asc limit 1==================count =0
22:01:33 - update queue_status set stat_last_update=NOW(), type_cnt = 45, type_loop_cnt = 502 where type_val = 'V7'
22:01:33 - Curl Response - {"code":200,"status":"Success:PostServerProcessDetails Posted For IP [209.59.156.167] and Process [V7]"}
22:01:33 - Contents - /postServerProcessDetails/ - Success:PostServerProcessDetails Posted For IP [209.59.156.167] and Process [V7] - 200
22:01:33 - ========== 45  - 268 mins 358.66577777778 Video Process / Start:2024-06-24 15:36:02 / Mod:6/16======
22:01:48 - Fetching  Video Jobs Mod Val : 6 Mod Limit : 16 Queue ID : 0 

22:01:48 - ========select * from message_remote_queue, hvo_data where queue_id%16 = 6 and image = 1 and video = 0 and error = 0 and hvo_queue_id = queue_id   order by high_priority_row desc, queue_id asc limit 1==================count =0
22:01:48 - update queue_status set stat_last_update=NOW(), type_cnt = 45, type_loop_cnt = 503 where type_val = 'V7'
22:01:48 - Curl Response - {"code":200,"status":"Success:PostServerProcessDetails Posted For IP [209.59.156.167] and Process [V7]"}
22:01:48 - Contents - /postServerProcessDetails/ - Success:PostServerProcessDetails Posted For IP [209.59.156.167] and Process [V7] - 200
22:01:48 - ========== 45  - 268 mins 358.66577777778 Video Process / Start:2024-06-24 15:36:02 / Mod:6/16======
22:02:03 - Fetching  Video Jobs Mod Val : 6 Mod Limit : 16 Queue ID : 0 

22:02:03 - ========select * from message_remote_queue, hvo_data where queue_id%16 = 6 and image = 1 and video = 0 and error = 0 and hvo_queue_id = queue_id   order by high_priority_row desc, queue_id asc limit 1==================count =0
22:02:03 - update queue_status set stat_last_update=NOW(), type_cnt = 45, type_loop_cnt = 504 where type_val = 'V7'
22:02:03 - Curl Response - {"code":200,"status":"Success:PostServerProcessDetails Posted For IP [209.59.156.167] and Process [V7]"}
22:02:03 - Contents - /postServerProcessDetails/ - Success:PostServerProcessDetails Posted For IP [209.59.156.167] and Process [V7] - 200
22:02:03 - ========== 45  - 268 mins 358.66577777778 Video Process / Start:2024-06-24 15:36:02 / Mod:6/16======
22:02:18 - Fetching  Video Jobs Mod Val : 6 Mod Limit : 16 Queue ID : 0 

22:02:18 - ========select * from message_remote_queue, hvo_data where queue_id%16 = 6 and image = 1 and video = 0 and error = 0 and hvo_queue_id = queue_id   order by high_priority_row desc, queue_id asc limit 1==================count =0
22:02:18 - update queue_status set stat_last_update=NOW(), type_cnt = 45, type_loop_cnt = 505 where type_val = 'V7'
22:02:19 - Curl Response - {"code":200,"status":"Success:PostServerProcessDetails Posted For IP [209.59.156.167] and Process [V7]"}
22:02:19 - Contents - /postServerProcessDetails/ - Success:PostServerProcessDetails Posted For IP [209.59.156.167] and Process [V7] - 200
22:02:19 - ========== 45  - 268 mins 358.66577777778 Video Process / Start:2024-06-24 15:36:02 / Mod:6/16======
22:02:34 - Fetching  Video Jobs Mod Val : 6 Mod Limit : 16 Queue ID : 0 

22:02:34 - ========select * from message_remote_queue, hvo_data where queue_id%16 = 6 and image = 1 and video = 0 and error = 0 and hvo_queue_id = queue_id   order by high_priority_row desc, queue_id asc limit 1==================count =0
22:02:34 - update queue_status set stat_last_update=NOW(), type_cnt = 45, type_loop_cnt = 506 where type_val = 'V7'
22:02:34 - Curl Response - {"code":200,"status":"Success:PostServerProcessDetails Posted For IP [209.59.156.167] and Process [V7]"}
22:02:34 - Contents - /postServerProcessDetails/ - Success:PostServerProcessDetails Posted For IP [209.59.156.167] and Process [V7] - 200
22:02:34 - ========== 45  - 268 mins 358.66577777778 Video Process / Start:2024-06-24 15:36:02 / Mod:6/16======
22:02:49 - Fetching  Video Jobs Mod Val : 6 Mod Limit : 16 Queue ID : 0 

22:02:49 - ========select * from message_remote_queue, hvo_data where queue_id%16 = 6 and image = 1 and video = 0 and error = 0 and hvo_queue_id = queue_id   order by high_priority_row desc, queue_id asc limit 1==================count =0
22:02:49 - update queue_status set stat_last_update=NOW(), type_cnt = 45, type_loop_cnt = 507 where type_val = 'V7'
22:02:49 - Curl Response - {"code":200,"status":"Success:PostServerProcessDetails Posted For IP [209.59.156.167] and Process [V7]"}
22:02:49 - Contents - /postServerProcessDetails/ - Success:PostServerProcessDetails Posted For IP [209.59.156.167] and Process [V7] - 200
22:02:49 - ========== 45  - 268 mins 358.66577777778 Video Process / Start:2024-06-24 15:36:02 / Mod:6/16======
22:03:04 - Fetching  Video Jobs Mod Val : 6 Mod Limit : 16 Queue ID : 0 

22:03:04 - ========select * from message_remote_queue, hvo_data where queue_id%16 = 6 and image = 1 and video = 0 and error = 0 and hvo_queue_id = queue_id   order by high_priority_row desc, queue_id asc limit 1==================count =0
22:03:04 - update queue_status set stat_last_update=NOW(), type_cnt = 45, type_loop_cnt = 508 where type_val = 'V7'
22:03:04 - Curl Response - {"code":200,"status":"Success:PostServerProcessDetails Posted For IP [209.59.156.167] and Process [V7]"}
22:03:04 - Contents - /postServerProcessDetails/ - Success:PostServerProcessDetails Posted For IP [209.59.156.167] and Process [V7] - 200
22:03:04 - ========== 45  - 268 mins 358.66577777778 Video Process / Start:2024-06-24 15:36:02 / Mod:6/16======
22:03:19 - Fetching  Video Jobs Mod Val : 6 Mod Limit : 16 Queue ID : 0 

22:03:19 - ========select * from message_remote_queue, hvo_data where queue_id%16 = 6 and image = 1 and video = 0 and error = 0 and hvo_queue_id = queue_id   order by high_priority_row desc, queue_id asc limit 1==================count =1
22:03:19 - Processing Auto VideoFKEY:53C9D7BA-2E57-0FFA-AAF0-89CCC8A1EEFB - QueueID:306790 
22:03:19 - CLIENT INFO  CLIENT_FK  : AE5CE20C-2CDC-3B8B-D4B2-4D9436769823 ,CLIENT_INFO :{"client_id":"1250","client_fk":"AE5CE20C-2CDC-3B8B-D4B2-4D9436769823","client_acc_id":"3","client_name":"Don Davis Nissan Inc","client_desc":"","client_color":"000000","client_player_color":"","client_textcolor":"","client_tts_text":"","client_tts_options":"","client_inactive":"0","client_createdate":"2010-11-02 11:37:26","client_enddate":"","client_update":"2020-02-20 16:03:16","client_email_forward":"","client_dealer_id":"13874","client_franchise_number":"","client_salesperson_name":"","client_address":"1320 East I-20","client_city":"Arlington","client_state":"TX","client_zip":"76018","client_phone":"(877)-379-3670","client_url":"http://dondavisnissan.com","client_fb_id":"0","client_km":"0","client_special_price":"0","client_demo":"0","client_utube_flag":"1","client_cvo":"0","client_tts":"0","client_live_uv":"0","client_live_overlay":"0","client_av":"0","client_gv":"0","client_af":"0","client_video_email":"0","client_carfax":"0","client_intro":"0","client_outro":"0","client_slider":"0","client_music_id":"1","client_ei":"0","client_tts_vm":"1","client_hvo":"1","client_mobile":"0","client_portal":"0","client_instavid":"0","client_new_stock_video":"0","client_vidmagnet":"0","client_auto_play":"1","client_cpo":"1","client_vid_stab":"0","client_vp":"0","client_xl":"0","client_carstory":"0","client_360_player":"0","client_ece":"0","client_capture_video":"0","client_new_cvo":"0","client_pip":"1","client_account_id":"1","client_crm_email":"","client_crm_dealer_id":"","client_crm_dealer_key":"","client_archive":"0","client_damage_photo":"0","client_package":"5","client_video_size":"HDLARGE","client_video_style":"FULL","client_lat_lng":"32.6771365|-97.0887278","client_comments":"","SHOW_CARSTORY":"0"}
22:03:19 - Rest Call: /client/videoDetails/AE5CE20C-2CDC-3B8B-D4B2-4D9436769823?video_key=53C9D7BA-2E57-0FFA-AAF0-89CCC8A1EEFB
22:03:19 - Curl Response - {"video_id":"49293397","video_fk":"53C9D7BA-2E57-0FFA-AAF0-89CCC8A1EEFB","vehicle_id":"43431134","video_client_id":"1250","video_script":"Odometer is 17791 miles below market average!White 2021 Ford Bronco Sport Outer Banks 4WD 8-Speed Automatic 1.5L EcoBoostAwards:* JD Power Automotive Performance, Execution and Layout (APEAL) Study","video_tts_script":"Odometer is 17791 miles below market average!White 2021 Ford Bronco Sport Outer Banks 4WD 8-Speed Automatic 1.5L EcoBoostAwards:* JD Power Automotive Performance, Execution and Layout (APEAL) Study","video_flv":"","video_create_time":"2024-06-13 11:21:30","video_update_time":"2024-06-24 22:02:45","audio_length":"0","video_options":"ENGINE: 1.5L ECOBOOST  -inc: auto start-stop technology (STD),Turbocharged,Four Wheel Drive,Power Steering,ABS,4-Wheel Disc Brakes,Brake Assist,Aluminum Wheels,Tires - Front All-Season,Tires - Rear All-Season,Temporary Spare Tire,Heated Mirrors,Power Mirror(s),Rear Defrost,Privacy Glass,Intermittent Wipers,Variable Speed Intermittent Wipers,Rain Sensing Wipers,Power Door Locks,Daytime Running Lights,Automatic Headlights,LED Headlights,Automatic Highbeams,Fog Lamps,AM\/FM Stereo,Satellite Radio,Requires Subscription,MP3 Player,Steering Wheel Audio Controls,Satellite Radio,Requires Subscription,MP3 Player,Telematics,Auxiliary Audio Input,Smart Device Integration,Requires Subscription,Bluetooth Connection,Pass-Through Rear Seat,Rear Bench Seat,Adjustable Steering Wheel,Trip Computer,Power Windows,WiFi Hotspot,Leather Steering Wheel,Heated Steering Wheel,Keyless Entry,Power Door Locks,Keyless Entry,Power Door Locks,Keyless Start","video_custom_flag":"0","video_title":"2021 FORD BRONCO SPORT Arlington, TX","video_local_title":"2021 FORD BRONCO SPORT Arlington, TX","video_frames":"20","video_image_url":"\/avavids\/1\/clients\/1250\/images\/53C9D7BA-2E57-0FFA-AAF0-89CCC8A1EEFB_","video_pin_id":"0","video_tts_flag":"1","video_hvo_flag":"0","video_share":"1","video_default_flag":"1","video_imgsrc_urls":"https:\/\/content.homenetiol.com\/9504283d93a84d2c8d5c6daaf61a6b46.jpg,https:\/\/content.homenetiol.com\/2b18bda4edd5458cb0f21acd13ea2f5a.jpg,https:\/\/content.homenetiol.com\/c22c58dbea9a414a854590c0bbeb658f.jpg,https:\/\/content.homenetiol.com\/deea65be39de4545ab8d8cd651f99039.jpg,https:\/\/content.homenetiol.com\/c93f08a456234f1c829d8e1569e0110b.jpg,https:\/\/content.homenetiol.com\/71e4e4faed6c43ae909f2a09154f8bc3.jpg,https:\/\/content.homenetiol.com\/29349b826cff4f60910f8d60c7799119.jpg,https:\/\/content.homenetiol.com\/e70b431c926c454599f3ee8a989fd222.jpg,https:\/\/content.homenetiol.com\/cff88a3883a443c4b2af8fa3165bc619.jpg,https:\/\/content.homenetiol.com\/d7db818c19f547e88dd8e09a9b988a71.jpg,https:\/\/content.homenetiol.com\/a9dc114321d74023a38cd5833ee36f25.jpg,https:\/\/content.homenetiol.com\/eeb486d714c743ceb65a29c1702f4144.jpg,https:\/\/content.homenetiol.com\/e7293951e3a946db9b2027cf12f569c3.jpg,https:\/\/content.homenetiol.com\/2776d5598cf0454c8afc48790ddd2062.jpg,https:\/\/content.homenetiol.com\/54bc26f818fb43798680a666bbe9dbd6.jpg,https:\/\/content.homenetiol.com\/62163c0b8c854f9bbd5fb3c1d806de89.jpg,https:\/\/content.homenetiol.com\/a496917285114c66b03556d8d0653fd1.jpg,https:\/\/content.homenetiol.com\/93f5fd694fe841219600d6fcd76fb3df.jpg,https:\/\/content.homenetiol.com\/e9cf4c2451ca4e98a97910855d3c9481.jpg,https:\/\/content.homenetiol.com\/f204d9c965cd4c45a566ea3407b8a54b.jpg,https:\/\/content.homenetiol.com\/641a0abeb8fa4719a7e2c9da4920cab5.jpg,https:\/\/content.homenetiol.com\/a5c16defc54f48c6be121fd139ed6c91.jpg,https:\/\/content.homenetiol.com\/11d8eb74fbc1435b8d5a13e570ee5664.jpg","video_thumbnail_url":"","video_rendering_flag":"0","video_error_rendering":"","video_view_cnt":"0","video_delete_flag":"0","video_delete_time":"","video_batch_proc":"0","video_meta_data":"","video_custom_default":"0","video_external_flv":"https:\/\/gcsimages.s3.us-west-001.backblazeb2.com\/clients\/1250\/video\/53C9D7BA-2E57-0FFA-AAF0-89CCC8A1EEFB.mp4","video_external_wflv":"","video_external_iflv":"","video_custom_uploaded":"0","vehicle_client_id":"1250","vehicle_fkey":"F1D7470C-8CB9-11A4-F27E-CB862864801A","vehicle_uid":"1556954805","vehicle_vin":"3FMCR9C64MRA00611","vehicle_stock":"B15274","vehicle_year":"2021","vehicle_make":"Ford","vehicle_model":"Bronco Sport","vehicle_trim":"Outer Banks","vehicle_price":"30000","vehicle_mileage":"23473","vehicle_int_color":"","vehicle_ext_color":"White","vehicle_body_type":"Sport Utility","vehicle_listing_type":"Used","vehicle_citympg":"","vehicle_hwympg":"","vehicle_combmpg":"","vehicle_cylinders":"3","vehicle_engine_size":"1.5","vehicle_trans":"Automatic","vehicle_drivetrain":"4WD","vehicle_passengers":"0","vehicle_doors":"4","vehicle_certified":"0","vehicle_special":"0","vehicle_options":"ENGINE: 1.5L ECOBOOST  -inc: auto start-stop technology (STD),Turbocharged,Four Wheel Drive,Power Steering,ABS,4-Wheel Disc Brakes,Brake Assist,Aluminum Wheels,Tires - Front All-Season,Tires - Rear All-Season,Temporary Spare Tire,Heated Mirrors,Power Mirror(s),Rear Defrost,Privacy Glass,Intermittent Wipers,Variable Speed Intermittent Wipers,Rain Sensing Wipers,Power Door Locks,Daytime Running Lights,Automatic Headlights,LED Headlights,Automatic Highbeams,Fog Lamps,AM\/FM Stereo,Satellite Radio,Requires Subscription,MP3 Player,Steering Wheel Audio Controls,Satellite Radio,Requires Subscription,MP3 Player,Telematics,Auxiliary Audio Input,Smart Device Integration,Requires Subscription,Bluetooth Connection,Pass-Through Rear Seat,Rear Bench Seat,Adjustable Steering Wheel,Trip Computer,Power Windows,WiFi Hotspot,Leather Steering Wheel,Heated Steering Wheel,Keyless Entry,Power Door Locks,Keyless Entry,Power Door Locks,Keyless Start","vehicle_desc":"2021 FORD BRONCO SPORT Arlington, TXStock# B15274817-588-5334dondavisnissan.comFor more information on this vehicle and our full inventory, call 817-588-5334.Don Davis Nissan Inc1320 East I-20Arlington, TX 76018Odometer is 17791 miles below market average!White 2021 Ford Bronco Sport Outer Banks 4WD 8-Speed Automatic 1.5L EcoBoostAwards:* JD Power Automotive Performance, Execution and Layout (APEAL) Study","vehicle_chrome_style_id":"","vehicle_model_num":"","vehicle_stock_video":"0","vehicle_img_cnt":"23","veh_more_info":"","vehicle_create_date":"2024-06-13 11:21:30","vehicle_update_date":"2024-06-24 22:02:38","vehicle_md5":"0650cd68746875377228e23974ce9318","vehicle_status":"U","vehicle_add":"0","vehicle_delete_flag":"0","vehicle_delete_time":""}
22:03:19 - Rest Call: /client/getAudioVideoConfig/AE5CE20C-2CDC-3B8B-D4B2-4D9436769823?listing_type=Used&video_type=Auto&certified=0&vehicle_make=Ford
22:03:20 - Curl Response - {"BG_MUSIC":"RF4_Country_Jazz","THEME_BG_COLOR":"ffffff","THEME_ACCENTS_COLOR":"047ec1","THEME_FONT_COLOR":"000000","THEME_FONT":"Din","THEME_STYLE":"Ren","BG_VOL_LEVEL":"0.25","AUDIO_VO":"VO","VIDEO_SIZE":"VIDEO_LARGE","CUSTOM_INTRO":"","CUSTOM_OUTRO":"","THEME_KEY":"3_0_Auto_Default_0_ALL","THEME_RANK":"2","THEME_CONFIG":"RESELLER_CONFIG","DISABLE_PRICE":"YES","DISPLAY_INFO":"NO","DISPLAY_MAP":"NO","DISPLAY_MILEAGE":"NO","DISPLAY_OPTIONS":"NO","DISPLAY_PRICE":"NO","OLD_BG_STYLE":"0"}
22:03:20 - Return from CheckProfileVal function::1 - DISABLE_PRICE - YES
22:03:20 - Return from CheckProfileVal function::0 - DISABLE_MILEAGE - YES
22:03:20 - Return from CheckProfileVal function::0 - DISABLE_CARSTORY - YES
22:03:20 - Config Information for 53C9D7BA-2E57-0FFA-AAF0-89CCC8A1EEFB - Width:640 - CPO:1/0 - CF:0 - CS:0  - Intro:0 - Outro:0 - Ovleray:0 -THEME:3_0_Auto_Default_0_ALL
22:03:20 - https://content.homenetiol.com/9504283d93a84d2c8d5c6daaf61a6b46.jpg /var/www/html/clients/1250/images/53C9D7BA-2E57-0FFA-AAF0-89CCC8A1EEFB_1.jpg
22:03:20 - https://content.homenetiol.com/2b18bda4edd5458cb0f21acd13ea2f5a.jpg /var/www/html/clients/1250/images/53C9D7BA-2E57-0FFA-AAF0-89CCC8A1EEFB_2.jpg
22:03:20 - https://content.homenetiol.com/c22c58dbea9a414a854590c0bbeb658f.jpg /var/www/html/clients/1250/images/53C9D7BA-2E57-0FFA-AAF0-89CCC8A1EEFB_3.jpg
22:03:20 - https://content.homenetiol.com/deea65be39de4545ab8d8cd651f99039.jpg /var/www/html/clients/1250/images/53C9D7BA-2E57-0FFA-AAF0-89CCC8A1EEFB_4.jpg
22:03:20 - https://content.homenetiol.com/c93f08a456234f1c829d8e1569e0110b.jpg /var/www/html/clients/1250/images/53C9D7BA-2E57-0FFA-AAF0-89CCC8A1EEFB_5.jpg
22:03:20 - https://content.homenetiol.com/71e4e4faed6c43ae909f2a09154f8bc3.jpg /var/www/html/clients/1250/images/53C9D7BA-2E57-0FFA-AAF0-89CCC8A1EEFB_6.jpg
22:03:20 - https://content.homenetiol.com/29349b826cff4f60910f8d60c7799119.jpg /var/www/html/clients/1250/images/53C9D7BA-2E57-0FFA-AAF0-89CCC8A1EEFB_7.jpg
22:03:20 - https://content.homenetiol.com/e70b431c926c454599f3ee8a989fd222.jpg /var/www/html/clients/1250/images/53C9D7BA-2E57-0FFA-AAF0-89CCC8A1EEFB_8.jpg
22:03:20 - https://content.homenetiol.com/cff88a3883a443c4b2af8fa3165bc619.jpg /var/www/html/clients/1250/images/53C9D7BA-2E57-0FFA-AAF0-89CCC8A1EEFB_9.jpg
22:03:20 - https://content.homenetiol.com/d7db818c19f547e88dd8e09a9b988a71.jpg /var/www/html/clients/1250/images/53C9D7BA-2E57-0FFA-AAF0-89CCC8A1EEFB_10.jpg
22:03:20 - https://content.homenetiol.com/a9dc114321d74023a38cd5833ee36f25.jpg /var/www/html/clients/1250/images/53C9D7BA-2E57-0FFA-AAF0-89CCC8A1EEFB_11.jpg
22:03:20 - https://content.homenetiol.com/eeb486d714c743ceb65a29c1702f4144.jpg /var/www/html/clients/1250/images/53C9D7BA-2E57-0FFA-AAF0-89CCC8A1EEFB_12.jpg
22:03:20 - https://content.homenetiol.com/e7293951e3a946db9b2027cf12f569c3.jpg /var/www/html/clients/1250/images/53C9D7BA-2E57-0FFA-AAF0-89CCC8A1EEFB_13.jpg
22:03:20 - https://content.homenetiol.com/2776d5598cf0454c8afc48790ddd2062.jpg /var/www/html/clients/1250/images/53C9D7BA-2E57-0FFA-AAF0-89CCC8A1EEFB_14.jpg
22:03:20 - https://content.homenetiol.com/54bc26f818fb43798680a666bbe9dbd6.jpg /var/www/html/clients/1250/images/53C9D7BA-2E57-0FFA-AAF0-89CCC8A1EEFB_15.jpg
22:03:20 - https://content.homenetiol.com/62163c0b8c854f9bbd5fb3c1d806de89.jpg /var/www/html/clients/1250/images/53C9D7BA-2E57-0FFA-AAF0-89CCC8A1EEFB_16.jpg
22:03:20 - https://content.homenetiol.com/a496917285114c66b03556d8d0653fd1.jpg /var/www/html/clients/1250/images/53C9D7BA-2E57-0FFA-AAF0-89CCC8A1EEFB_17.jpg
22:03:20 - https://content.homenetiol.com/93f5fd694fe841219600d6fcd76fb3df.jpg /var/www/html/clients/1250/images/53C9D7BA-2E57-0FFA-AAF0-89CCC8A1EEFB_18.jpg
22:03:20 - https://content.homenetiol.com/e9cf4c2451ca4e98a97910855d3c9481.jpg /var/www/html/clients/1250/images/53C9D7BA-2E57-0FFA-AAF0-89CCC8A1EEFB_19.jpg
22:03:20 - https://content.homenetiol.com/f204d9c965cd4c45a566ea3407b8a54b.jpg /var/www/html/clients/1250/images/53C9D7BA-2E57-0FFA-AAF0-89CCC8A1EEFB_20.jpg
22:03:20 - Image Count 20
22:03:20 - Setting Female English VO Constants | 0 | 0
22:03:20 - ====HVO Value:1, Audio Value:0===
22:03:20 - Return from CheckProfileVal function::0 - AUDIO_INTRO - 
22:03:20 - Return from CheckProfileVal function::0 - AUDIO_OUTRO - 
22:03:20 - ================Process HVO=========== 
 1
22:03:20 - ================CLIENT SELECT TTS VM VALUE=========== 
 1
22:03:20 - 1 - 1 - /var/app/video_pre_processor/assets/hvo/
22:03:20 - Setting Female English VO Constants | 0 | 1
22:03:20 - HVO Soap Call Method - AudoListWMIE 

22:03:20 - Getting Text For Audio Files
22:03:20 - HVO Soap Call Method - AudoListTWMIE 

22:03:20 - Getting Text For Audio Files emotionalFile 14
22:03:20 - HVO Soap Call Method - GetTTScripts 

22:03:20 - Getting Text For Audio Files introEmotionalFile 24
22:03:20 - HVO Soap Call Method - GetTTScripts 

22:03:20 - Getting Text For Audio Files scriptFile 20
22:03:20 - HVO Soap Call Method - GetTTScripts 

22:03:20 - ================TTS VM VALUE=========== 
 1
22:03:20 - ================GetVOFiles=========== 
 {"OptionFiles":[{"option_str":"* General Options Intro","option_file":"http:\/\/hvo.flickfusion.net\/audio\/options\/options_audio_file_55.mp3","option_saftey":1},{"option_str":"Keyless Entry","option_file":"http:\/\/hvo.flickfusion.net\/audio\/options\/options_audio_file_202.mp3","option_saftey":1},{"option_str":"Keyless Entry","option_file":"http:\/\/hvo.flickfusion.net\/audio\/options\/options_audio_file_202.mp3","option_saftey":1},{"option_str":"ANTI-LOCK BRAKING SYSTEM","option_file":"http:\/\/hvo.flickfusion.net\/audio\/options\/options_audio_file_70.mp3","option_saftey":1},{"option_str":"LED Headlights","option_file":"http:\/\/hvo.flickfusion.net\/audio\/options\/options_audio_file_1349.mp3","option_saftey":1},{"option_str":"Steering wheel audio controls","option_file":"http:\/\/hvo.flickfusion.net\/audio\/options\/options_audio_file_296.mp3","option_saftey":1},{"option_str":"Bluetooth","option_file":"http:\/\/hvo.flickfusion.net\/audio\/options\/options_audio_file_846.mp3","option_saftey":1},{"option_str":"Leather Wrapped Steering Wheel","option_file":"http:\/\/hvo.flickfusion.net\/audio\/options\/options_audio_file_207.mp3","option_saftey":1},{"option_str":"Adjustable Steering Wheel","option_file":"http:\/\/hvo.flickfusion.net\/audio\/options\/options_audio_file_74.mp3","option_saftey":1},{"option_str":"Power Steering","option_file":"http:\/\/hvo.flickfusion.net\/audio\/options\/options_audio_file_244.mp3","option_saftey":1},{"option_str":"Keyless Start","option_file":"http:\/\/hvo.flickfusion.net\/audio\/options\/options_audio_file_203.mp3","option_saftey":1},{"option_str":"Aluminum Wheels","option_file":"http:\/\/hvo.flickfusion.net\/audio\/options\/options_audio_file_83.mp3","option_saftey":1},{"option_str":"4-Wheel Disc Brakes","option_file":"http:\/\/hvo.flickfusion.net\/audio\/options\/options_audio_file_63.mp3","option_saftey":1},{"option_str":"Four Wheel Drive","option_file":"http:\/\/hvo.flickfusion.net\/audio\/options\/options_audio_file_173.mp3","option_saftey":1},{"option_str":"AM\/FM STEREO RADIO","option_file":"http:\/\/hvo.flickfusion.net\/audio\/options\/options_audio_file_69.mp3","option_saftey":1},{"option_str":"Rear Defrost","option_file":"http:\/\/hvo.flickfusion.net\/audio\/options\/options_audio_file_259.mp3","option_saftey":1},{"option_str":"Power Door Locks","option_file":"http:\/\/hvo.flickfusion.net\/audio\/options\/options_audio_file_234.mp3","option_saftey":1},{"option_str":"Fog Lamps","option_file":"http:\/\/hvo.flickfusion.net\/audio\/options\/options_audio_file_171.mp3","option_saftey":1},{"option_str":"MP3 Player","option_file":"http:\/\/hvo.flickfusion.net\/audio\/options\/options_audio_file_211.mp3","option_saftey":1},{"option_str":"MP3 Player","option_file":"http:\/\/hvo.flickfusion.net\/audio\/options\/options_audio_file_211.mp3","option_saftey":1},{"option_str":"Trip Computer","option_file":"http:\/\/hvo.flickfusion.net\/audio\/options\/options_audio_file_321.mp3","option_saftey":1},{"option_str":"Power Door Locks","option_file":"http:\/\/hvo.flickfusion.net\/audio\/options\/options_audio_file_234.mp3","option_saftey":1},{"option_str":"Power Door Locks","option_file":"http:\/\/hvo.flickfusion.net\/audio\/options\/options_audio_file_234.mp3","option_saftey":1},{"option_str":"HEATED STEERING WHEEL ","option_file":"http:\/\/hvo.flickfusion.net\/audio\/options\/options_audio_file_839.mp3","option_saftey":1},{"option_str":"Power Windows","option_file":"http:\/\/hvo.flickfusion.net\/audio\/options\/options_audio_file_2.mp3","option_saftey":1},{"option_str":"Satellite Radio","option_file":"http:\/\/hvo.flickfusion.net\/audio\/options\/options_audio_file_279.mp3","option_saftey":1},{"option_str":"Auxiliary Audio Input","option_file":"http:\/\/hvo.flickfusion.net\/audio\/options\/options_audio_file_95.mp3","option_saftey":1},{"option_str":"Daytime Running Lights","option_file":"http:\/\/hvo.flickfusion.net\/audio\/options\/options_audio_file_142.mp3","option_saftey":1},{"option_str":"Brake Assist","option_file":"http:\/\/hvo.flickfusion.net\/audio\/options\/options_audio_file_104.mp3","option_saftey":1},{"option_str":"Satellite Radio","option_file":"http:\/\/hvo.flickfusion.net\/audio\/options\/options_audio_file_279.mp3","option_saftey":1},{"option_str":"Privacy Glass","option_file":"http:\/\/hvo.flickfusion.net\/audio\/options\/options_audio_file_249.mp3","option_saftey":1},{"option_str":"Heated Mirrors","option_file":"http:\/\/hvo.flickfusion.net\/audio\/options\/options_audio_file_7.mp3","option_saftey":1},{"option_str":"Telematics","option_file":"http:\/\/hvo.flickfusion.net\/audio\/options\/options_audio_file_303.mp3","option_saftey":1},{"option_str":"Rain Sensing Wipers","option_file":"http:\/\/hvo.flickfusion.net\/audio\/options\/options_audio_file_254.mp3","option_saftey":1},{"option_str":"Pass-Through Rear Seat","option_file":"http:\/\/hvo.flickfusion.net\/audio\/options\/options_audio_file_227.mp3","option_saftey":1},{"option_str":"Turbocharged","option_file":"http:\/\/hvo.flickfusion.net\/audio\/options\/options_audio_file_322.mp3","option_saftey":1},{"option_str":"Tires - Rear All-Season","option_file":"http:\/\/hvo.flickfusion.net\/audio\/options\/options_audio_file_313.mp3","option_saftey":1},{"option_str":"Tires - Front All-Season","option_file":"http:\/\/hvo.flickfusion.net\/audio\/options\/options_audio_file_308.mp3","option_saftey":1},{"option_str":"REAR BENCH SEAT","option_file":"http:\/\/hvo.flickfusion.net\/audio\/options\/options_audio_file_693.mp3","option_saftey":1},{"option_str":"WiFi Hotspot","option_file":"http:\/\/hvo.flickfusion.net\/audio\/options\/options_audio_file_1501.mp3","option_saftey":1},{"option_str":"Smart Device Integration","option_file":"","option_saftey":1},{"option_str":"Variable Speed Intermittent Wipers","option_file":"http:\/\/hvo.flickfusion.net\/audio\/options\/options_audio_file_325.mp3","option_saftey":1}],"yearFile":"http:\/\/hvo.flickfusion.net\/audio\/year\/year_audio_file_56.mp3","makeFile":"http:\/\/hvo.flickfusion.net\/audio\/makes\/make_name_audio_file_14.mp3","modelFile":"http:\/\/hvo.flickfusion.net\/audio\/mdlnames\/model_name_audio_file_536.mp3","modelHighlightFile":"http:\/\/hvo.flickfusion.net\/audio\/models\/model_audio_file_536.mp3","styleFile":"","bodytypeFile":"","transFile":"http:\/\/hvo.flickfusion.net\/audio\/domain_transmission\/transmission_audio_file_2.mp3","engineFile":"http:\/\/hvo.flickfusion.net\/audio\/domain_enginesize\/enginesize_audio_file_3.mp3","cylindersFile":"http:\/\/hvo.flickfusion.net\/audio\/domain_cylinders\/cylinder_audio_file_7.Cylinder","driveTrainFile":"http:\/\/hvo.flickfusion.net\/audio\/domain_drivetrain\/drivetrain_audio_file_5.WD","priceFile":"","mileageFile":"http:\/\/hvo.flickfusion.net\/audio\/mileage\/miles_audio_file_6.mp3","carfaxFile":"","emotionalFile":"http:\/\/hvo.flickfusion.net\/audio\/emotional\/emotional_audio_file_14.mp3","introEmotionalFile":"http:\/\/hvo.flickfusion.net\/audio\/emotional\/ie_audio_file_24.mp3","scriptFile":"http:\/\/hvo.flickfusion.net\/audio\/domain_scripts\/script_audio_file_20.mp3","statusCode":"1","statusMessage":"Audio Files Sent"}
22:03:20 - /var/www/html/clients/1250/audio/53C9D7BA-2E57-0FFA-AAF0-89CCC8A1EEFB.wav
22:03:20 - ================Process HVO SOAP CALL CMD=========== 
 /usr/bin/sox
 STATUS CODE 
 1
22:03:20 - /var/app/video_pre_processor/assets/hvo/ie_audio_file_24.wav PlayTime:1.25
22:03:20 - /var/app/video_pre_processor/assets/hvo/year_audio_file_56.wav PlayTime:2.06
22:03:20 - /var/app/video_pre_processor/assets/hvo/model_name_audio_file_536.wav PlayTime:1.23
22:03:20 - /var/app/video_pre_processor/assets/hvo/model_audio_file_536.wav PlayTime:5.64
22:03:20 - Skipping VTT for BODY - bodytypeFile
22:03:20 - Skipping VTT for PRICE - priceFile
22:03:20 - KM Check : 23473 | 0
22:03:20 - /var/app/video_pre_processor/assets/hvo/miles_audio_file_6.wav PlayTime:3.71
22:03:20 - Curl Response - {"exterior":["Rain Sensing Wipers","Four Wheel Drive","Turbocharged","Heated Mirrors","Aluminum Wheels","Power Mirrors","Brake Assist","Intermittent Wipers","Daytime Running Lights","Auto Headlight On\/off","Privacy Glass","Fog Lamps","Tires - Front All-season","4-wheel Disc Brakes","Led Headlights","Tires - Rear All-season","Variable Speed Intermittent Wipers"],"interior":["Heated Steering Wheel","Smart Device Integration","Keyless Entry","Satellite Radio","Auxiliary Audio Input","Steering Wheel Audio Controls","Keyless Start","Mp3 Player","Trip Computer","Power Door Locks","Power Windows","Power Steering","Wifi Hotspot","Rear Bench Seat","Rear Defrost","Telematics","Leather Wrapped Steering Wheel","Adjustable Steering Wheel","Pass-through Rear Seat","Am\/fm Stereo Radio","Rear Defroster"]}
22:03:20 - ============={"exterior":["Rain Sensing Wipers","Four Wheel Drive","Turbocharged","Heated Mirrors","Aluminum Wheels","Power Mirrors","Brake Assist","Intermittent Wipers","Daytime Running Lights","Auto Headlight On\/off","Privacy Glass","Fog Lamps","Tires - Front All-season","4-wheel Disc Brakes","Led Headlights","Tires - Rear All-season","Variable Speed Intermittent Wipers"],"interior":["Heated Steering Wheel","Smart Device Integration","Keyless Entry","Satellite Radio","Auxiliary Audio Input","Steering Wheel Audio Controls","Keyless Start","Mp3 Player","Trip Computer","Power Door Locks","Power Windows","Power Steering","Wifi Hotspot","Rear Bench Seat","Rear Defrost","Telematics","Leather Wrapped Steering Wheel","Adjustable Steering Wheel","Pass-through Rear Seat","Am\/fm Stereo Radio","Rear Defroster"]}===============
22:03:20 - Skipping Duplicate Option Keyless Entry
22:03:20 - Skipping Duplicate Option Satellite Radio
22:03:20 - Skipping Duplicate Option Mp3 Player
22:03:20 - Skipping Duplicate Option Power Door Locks
22:03:20 - Skipping Duplicate Option Power Door Locks
22:03:20 - /var/app/video_pre_processor/assets/hvo/options_audio_file_55.wav PlayTime:3.4
22:03:20 - /var/app/video_pre_processor/assets/hvo/options_audio_file_254.wav PlayTime:1.78
22:03:20 - /var/app/video_pre_processor/assets/hvo/options_audio_file_173.wav PlayTime:1.36
22:03:20 - /var/app/video_pre_processor/assets/hvo/options_audio_file_322.wav PlayTime:1.28
22:03:20 - /var/app/video_pre_processor/assets/hvo/options_audio_file_7.wav PlayTime:1.59
22:03:20 - /var/app/video_pre_processor/assets/hvo/options_audio_file_83.wav PlayTime:1.25
22:03:20 - /var/app/video_pre_processor/assets/hvo/options_audio_file_104.wav PlayTime:1.38
22:03:20 - /var/app/video_pre_processor/assets/hvo/options_audio_file_142.wav PlayTime:1.65
22:03:20 - /var/app/video_pre_processor/assets/hvo/options_audio_file_249.wav PlayTime:1.2
22:03:20 - /var/app/video_pre_processor/assets/hvo/options_audio_file_171.wav PlayTime:1.04
22:03:20 - /var/app/video_pre_processor/assets/hvo/options_audio_file_308.wav PlayTime:2.14
22:03:20 - ======= ALL Options  ========== 
null
22:03:20 - /var/www/html/clients/1250/audio/53C9D7BA-2E57-0FFA-AAF0-89CCC8A1EEFB_option.wav
22:03:20 - /usr/bin/sox /var/app/video_pre_processor/assets/hvo/options_audio_file_55.wav /var/app/video_pre_processor/assets/hvo/options_audio_file_254.wav /var/app/video_pre_processor/assets/hvo/options_audio_file_173.wav /var/app/video_pre_processor/assets/hvo/options_audio_file_322.wav /var/app/video_pre_processor/assets/hvo/options_audio_file_7.wav /var/app/video_pre_processor/assets/hvo/options_audio_file_83.wav /var/app/video_pre_processor/assets/hvo/options_audio_file_104.wav /var/app/video_pre_processor/assets/hvo/options_audio_file_142.wav /var/app/video_pre_processor/assets/hvo/options_audio_file_249.wav /var/app/video_pre_processor/assets/hvo/options_audio_file_171.wav /var/app/video_pre_processor/assets/hvo/options_audio_file_308.wav /var/www/html/clients/1250/audio/53C9D7BA-2E57-0FFA-AAF0-89CCC8A1EEFB_option.wav
22:03:20 - /var/www/html/clients/1250/audio/53C9D7BA-2E57-0FFA-AAF0-89CCC8A1EEFB_option.wav PlayTime:18.08
22:03:20 - Skipping VTT for CARFAX - carfaxFile
22:03:20 - /var/app/video_pre_processor/assets/hvo/emotional_audio_file_14.wav PlayTime:8.39
22:03:20 - /usr/bin/sox /var/app/video_pre_processor/assets/hvo/ie_audio_file_24.wav /var/app/video_pre_processor/assets/hvo/year_audio_file_56.wav /var/app/video_pre_processor/assets/hvo/model_name_audio_file_536.wav /var/app/video_pre_processor/assets/hvo/model_audio_file_536.wav /var/app/video_pre_processor/assets/hvo/miles_audio_file_6.wav /var/www/html/clients/1250/audio/53C9D7BA-2E57-0FFA-AAF0-89CCC8A1EEFB_option.wav /var/app/video_pre_processor/assets/hvo/emotional_audio_file_14.wav /var/www/html/clients/1250/audio/53C9D7BA-2E57-0FFA-AAF0-89CCC8A1EEFB_temp1.wav
22:03:20 - Return from CheckProfileVal function::0 - REPLACE_FULL_AUDIO - 
22:03:20 - Return from CheckProfileVal function::0 - REPLACE_FULL_AUDIO_NEW - 
22:03:20 - ========REPALCE AUDIO TRACK LISTING TYPE used \ n USED VALUE : 0 NEW AUDIO VALUE : { 0} ==============

22:03:20 - Video Length for audio merge: 0
22:03:20 - /root/bin/ffmpeg  -i /var/www/html/clients/1250/audio/53C9D7BA-2E57-0FFA-AAF0-89CCC8A1EEFB.wav -f mp3 -ar 44100 -ab 320 -ac 2 -y /var/www/html/clients/1250/audio/53C9D7BA-2E57-0FFA-AAF0-89CCC8A1EEFB.mp3
ffmpeg version N-109053-g9b13078c6a Copyright (c) 2000-2022 the FFmpeg developers
  built with gcc 5.4.0 (GCC)
  configuration: --prefix=/root/ffmpeg_build --pkg-config-flags=--static --extra-cflags=-I/root/ffmpeg_build/include --extra-ldflags=-L/root/ffmpeg_build/lib --extra-libs=-lpthread --extra-libs=-lm --bindir=/root/bin --enable-gpl --enable-libfdk_aac --enable-libfreetype --enable-libmp3lame --enable-libopus --enable-libvpx --enable-libx264 --enable-openssl --enable-libx265 --enable-nonfree --enable-libvidstab
  libavutil      57. 42.100 / 57. 42.100
  libavcodec     59. 52.101 / 59. 52.101
  libavformat    59. 34.101 / 59. 34.101
  libavdevice    59.  8.101 / 59.  8.101
  libavfilter     8. 50.100 /  8. 50.100
  libswscale      6.  8.112 /  6.  8.112
  libswresample   4.  9.100 /  4.  9.100
  libpostproc    56.  7.100 / 56.  7.100
Guessed Channel Layout for Input Stream #0.0 : stereo
Input #0, wav, from '/var/www/html/clients/1250/audio/53C9D7BA-2E57-0FFA-AAF0-89CCC8A1EEFB.wav':
  Duration: 00:00:40.36, bitrate: 1411 kb/s
  Stream #0:0: Audio: pcm_s16le ([1][0][0][0] / 0x0001), 44100 Hz, 2 channels, s16, 1411 kb/s
Stream mapping:
  Stream #0:0 -> #0:0 (pcm_s16le (native) -> mp3 (libmp3lame))
Press [q] to stop, [?] for help
[libmp3lame @ 0x478b480] Bitrate 320 is extremely low, maybe you mean 320k
The bitrate parameter is set too low. It takes bits/s as argument, not kbits/s
Output #0, mp3, to '/var/www/html/clients/1250/audio/53C9D7BA-2E57-0FFA-AAF0-89CCC8A1EEFB.mp3':
  Metadata:
    TSSE            : Lavf59.34.101
  Stream #0:0: Audio: mp3, 44100 Hz, stereo, s16p, 0 kb/s
    Metadata:
      encoder         : Lavc59.52.101 libmp3lame
size=       0kB time=-577014:32:22.77 bitrate=  -0.0kbits/s speed=N/A    
size=      95kB time=00:00:06.06 bitrate= 128.3kbits/s speed=12.1x    
size=     210kB time=00:00:13.45 bitrate= 128.1kbits/s speed=13.4x    
size=     256kB time=00:00:20.69 bitrate= 101.4kbits/s speed=13.8x    
size=     256kB time=00:00:28.05 bitrate=  74.7kbits/s speed=  14x    
size=     512kB time=00:00:35.37 bitrate= 118.6kbits/s speed=14.1x    
size=     631kB time=00:00:40.33 bitrate= 128.2kbits/s speed=14.2x    
video:0kB audio:631kB subtitle:0kB other streams:0kB global headers:0kB muxing overhead: 0.039154%
22:03:23 - /var/app/video_pre_processor/assets/vidbot/_files/audio/RF4_Country_Jazz.mp3 PlayTime:320.5
22:03:23 - Using RF4_Country_Jazz.mp3 - /var/app/video_pre_processor/assets/vidbot/_files/audio/RF4_Country_Jazz.mp3
22:03:23 - BG MUSIC FILE /var/app/video_pre_processor/assets/vidbot/_files/audio/RF4_Country_Jazz.mp3 

22:03:23 - BG AUDIO CLIENT OVELAY VALUE : 0 

22:03:23 - /var/www/html/clients/1250/audio/53C9D7BA-2E57-0FFA-AAF0-89CCC8A1EEFB.wav PlayTime:40.36
22:03:23 - VParent - VOLEN:42.36 | /var/www/html/clients/1250/audio/53C9D7BA-2E57-0FFA-AAF0-89CCC8A1EEFB.mp3 | /var/app/video_pre_processor/assets/vidbot/_files/audio/RF4_Country_Jazz.mp3 | /var/www/html/clients/1250/audio/53C9D7BA-2E57-0FFA-AAF0-89CCC8A1EEFB.wav
22:03:23 - AUDIO PROCESS RETURN VALUE: - 1
22:03:23 - update message_remote_queue set video_process_start = '2024-06-24 22:03:23' where queue_id = 306790
22:03:23 - CLIENT INFO DATA 
{"client_id":"1250","client_fk":"AE5CE20C-2CDC-3B8B-D4B2-4D9436769823","client_acc_id":"3","client_name":"Don Davis Nissan Inc","client_desc":"","client_color":"000000","client_player_color":"","client_textcolor":"","client_tts_text":"","client_tts_options":"","client_inactive":"0","client_createdate":"2010-11-02 11:37:26","client_enddate":"","client_update":"2020-02-20 16:03:16","client_email_forward":"","client_dealer_id":"13874","client_franchise_number":"","client_salesperson_name":"","client_address":"1320 East I-20","client_city":"Arlington","client_state":"TX","client_zip":"76018","client_phone":"(877)-379-3670","client_url":"http:\/\/dondavisnissan.com","client_fb_id":"0","client_km":"0","client_special_price":"0","client_demo":"0","client_utube_flag":"1","client_cvo":"0","client_tts":"0","client_live_uv":"0","client_live_overlay":"0","client_av":"0","client_gv":"0","client_af":"0","client_video_email":"0","client_carfax":"0","client_intro":"0","client_outro":"0","client_slider":"0","client_music_id":"1","client_ei":"0","client_tts_vm":"1","client_hvo":"1","client_mobile":"0","client_portal":"0","client_instavid":"0","client_new_stock_video":"0","client_vidmagnet":"0","client_auto_play":"1","client_cpo":"1","client_vid_stab":"0","client_vp":"0","client_xl":"0","client_carstory":"0","client_360_player":"0","client_ece":"0","client_capture_video":"0","client_new_cvo":"0","client_pip":"1","client_account_id":"1","client_crm_email":"","client_crm_dealer_id":"","client_crm_dealer_key":"","client_archive":"0","client_damage_photo":"0","client_package":"5","client_video_size":"HDLARGE","client_video_style":"FULL","client_lat_lng":"32.6771365|-97.0887278","client_comments":"","SHOW_CARSTORY":"0"}
22:03:23 - File Downloaded http://gcsimages.storage.googleapis.com/clients/1250/library/map.jpg - /var/www/html/clients/1250/library/map.jpg - FileSize:57.15 K
22:03:23 - Map Exists: /var/www/html/clients/1250/library/map.jpg
22:03:23 - Checking CUSTOM_INTRO
22:03:23 - Checking CUSTOM_OUTRO
22:03:23 - ================CREATE VIDEO START =========== 

22:03:23 - ================VIDEO JSON GEN START ==============
22:03:23 - Video Size 360
22:03:23 - ===========Video Theme font ================Dinot
22:03:23 - ==========Video fk : ==============53C9D7BA-2E57-0FFA-AAF0-89CCC8A1EEFB
22:03:23 - ==============AUDIO VIDEO CONFIG : =========={"BG_MUSIC":"RF4_Country_Jazz","THEME_BG_COLOR":"ffffff","THEME_ACCENTS_COLOR":"047ec1","THEME_FONT_COLOR":"000000","THEME_FONT":"Dinot","THEME_STYLE":"Ren","BG_VOL_LEVEL":"0.25","AUDIO_VO":"VO","VIDEO_SIZE":"VIDEO_LARGE","CUSTOM_INTRO":"","CUSTOM_OUTRO":"","THEME_KEY":"3_0_Auto_Default_0_ALL","THEME_RANK":"2","THEME_CONFIG":"RESELLER_CONFIG","DISABLE_PRICE":"YES","DISPLAY_INFO":"NO","DISPLAY_MAP":"NO","DISPLAY_MILEAGE":"NO","DISPLAY_OPTIONS":"NO","DISPLAY_PRICE":"NO","OLD_BG_STYLE":"0"}
22:03:23 - CLIENT FKEY :  AE5CE20C-2CDC-3B8B-D4B2-4D9436769823  VIDEO FKEY :  53C9D7BA-2E57-0FFA-AAF0-89CCC8A1EEFB  VEHICLE FKEY :   
22:03:23 - INFO:: Video Type:SS Video Size:360 
22:03:23 - Return from CheckProfileVal function::0 - DISPLAY_MILEAGE - NO
22:03:23 - Return from CheckProfileVal function::1 - DISPLAY_MILEAGE - NO
22:03:23 - ==================ClipsGen START  =====================

22:03:23 - Return from CheckProfileVal function::0 - AUDIO_VO - NO_VO
22:03:23 - Return from CheckProfileVal function::0 - AUDIO_VO - NO_VO
22:03:23 - Return from CheckProfileVal function::0 - AUDIO_VO - LIVE_VO
22:03:23 - Return from CheckProfileVal function::0 - AUDIO_VO - LIVE_VO
22:03:23 - Return from CheckProfileVal function::0 - DISPLAY_OPTIONS - NO
22:03:23 - Return from CheckProfileVal function::1 - DISPLAY_OPTIONS - NO
22:03:23 - Return from CheckProfileVal function::0 - DISPLAY_PRICE - NO
22:03:23 - Return from CheckProfileVal function::1 - DISPLAY_PRICE - NO
22:03:23 - Return from CheckProfileVal function::0 - DISPLAY_MILEAGE - NO
22:03:23 - Return from CheckProfileVal function::1 - DISPLAY_MILEAGE - NO
22:03:23 - Return from CheckProfileVal function::0 - DISPLAY_INFO - NO
22:03:23 - Return from CheckProfileVal function::1 - DISPLAY_INFO - NO
22:03:23 - Return from CheckProfileVal function::0 - DISPLAY_TITLE_WSNAME - NO
22:03:23 - Return from CheckProfileVal function::0 - DISPLAY_TITLE_WSNAME - NO
22:03:23 - Return from CheckProfileVal function::0 - DISPLAY_ALL_OVERLAYS - NO
22:03:23 - Return from CheckProfileVal function::0 - DISPLAY_ALL_OVERLAYS - NO
22:03:23 - Return from CheckProfileVal function::0 - DISPLAY_MAP - NO
22:03:23 - Return from CheckProfileVal function::1 - DISPLAY_MAP - NO
22:03:23 - =========THEME STYLE-FONT :Ren - Din  ============
22:03:23 - /var/app/video_pre_processor/assets/vidbot/_files/audio/RF4_Country_Jazz.mp3 PlayTime:320.5
22:03:23 - Return from CheckProfileVal function::0 - BG_MUSIC_OVER_ALL_CLIPS - YES
22:03:23 - Return from CheckProfileVal function::0 - BG_MUSIC_OVER_ALL_CLIPS - YES
22:03:23 - AUDIO TIMER: 
{"INTRO":0,"YEAR":1.25,"MODEL":3.31,"HIGH":4.54,"MILE":10.18,"ALL_OPTIONS":{"* General Options Intro":13.89,"Rain Sensing Wipers":17.29,"Four Wheel Drive":19.07,"Turbocharged":20.43,"Heated Mirrors":21.71,"Aluminum Wheels":23.3,"Brake Assist":24.55,"Daytime Running Lights":25.93,"Privacy Glass":27.58,"Fog Lamps":28.779999999999998,"Tires - Front All-season":29.819999999999997},"OPTIONS":15.89,"OPTIONS_AUD_LENGTH":18.08,"ENDFILE":31.959999999999997}
22:03:23 - ===================ClipsGen END  ======================== 

22:03:23 - INFO:: VIDEO JSON : "53C9D7BA-2E57-0FFA-AAF0-89CCC8A1EEFB.json"
22:03:23 - node /var/app/Vidbot-V2/dist/vidbot.js --input /var/www/html/clients/1250/video/53C9D7BA-2E57-0FFA-AAF0-89CCC8A1EEFB.json --log debug > /var/www/html/clients/1250/video/53C9D7BA-2E57-0FFA-AAF0-89CCC8A1EEFB.log
22:08:58 - Generated Video File./var/www/html/clients/1250/video/53C9D7BA-2E57-0FFA-AAF0-89CCC8A1EEFB.mp4
22:08:58 - INFO:: Generated Video File./var/www/html/clients/1250/video/53C9D7BA-2E57-0FFA-AAF0-89CCC8A1EEFB.mp4
22:08:58 - INFO:: Sprite & Bookmark Option(s) not enabled
22:08:58 - ================VIDEO JSON GEN END RETURN VALUE : 1 ============== 
22:08:58 - ================CREATE VIDEO END =========== 
 ERROR : { 0}
22:08:58 - Start Time:0
22:08:58 - 0##1.25##Take a ride in
22:08:58 - 1.25##3.31##The 2021
22:08:58 - 3.31##4.54##Bronco
22:08:58 - 4.54##10.18##Ford Bronco: interior comfort traction abilities overall weight balancing pulling power!
22:08:58 - 10.18##13.89##This Vehicle has less than 25000 miles
22:08:58 - Replacing VTT String * General Options Intro to Here are some of this Vehicle's great options
22:08:58 - 13.89##17.29##Here are some of this Vehicle's great options
22:08:58 - 17.29##19.07##Rain Sensing Wipers
22:08:58 - 19.07##20.43##Four Wheel Drive
22:08:58 - 20.43##21.71##Turbocharged
22:08:58 - 21.71##23.3##Heated Mirrors
22:08:58 - 23.3##24.55##Aluminum Wheels
22:08:58 - 24.55##25.93##Brake Assist
22:08:58 - 25.93##27.58##Daytime Running Lights
22:08:58 - 27.58##28.78##Privacy Glass
22:08:58 - 28.78##29.82##Fog Lamps
22:08:58 - 29.82##31.96##Tires - Front All-season
22:08:58 - 31.96##40.35##If affordable style and reliability are what you're looking for this vehicle couldn't be more perfect.  Drive it today!
22:08:58 - Curl Response - {"code":200,"status":"VTT Updated"}
22:08:58 - Contents - /postVTTString/ - VTT Updated - 200
0##1.25##Take a ride in|||1.25##3.31##The 2021|||3.31##4.54##Bronco|||4.54##10.18##Ford Bronco: interior comfort traction abilities overall weight balancing pulling power!|||10.18##13.89##This Vehicle has less than 25000 miles|||13.89##17.29##Here are some of this Vehicle's great options|||17.29##19.07##Rain Sensing Wipers|||19.07##20.43##Four Wheel Drive|||20.43##21.71##Turbocharged|||21.71##23.3##Heated Mirrors|||23.3##24.55##Aluminum Wheels|||24.55##25.93##Brake Assist|||25.93##27.58##Daytime Running Lights|||27.58##28.78##Privacy Glass|||28.78##29.82##Fog Lamps|||29.82##31.96##Tires - Front All-season|||31.96##40.35##If affordable style and reliability are what you're looking for this vehicle couldn't be more perfect.  Drive it today!
22:08:58 - VIDEO JSON GEN RETURN VALUE: - 0
22:08:58 - update message_remote_queue set error=0, video = 1, error_message = concat( "", error_message ), process_start = '2024-06-24 22:03:20', audio_process_start = '2024-06-24 22:03:20', audio_process_end = '2024-06-24 22:03:23', video_process_start ='2024-06-24 22:03:23', video_process_end='2024-06-24 22:08:58' where queue_id = 306790
22:08:58 - ==46 - 1 Elapsed Time 339.01 ==

22:08:58 - update queue_status set stat_last_update=NOW(), type_cnt = 46, type_loop_cnt = 509 where type_val = 'V7'
22:08:58 - Curl Response - {"code":200,"status":"Success:PostServerProcessDetails Posted For IP [209.59.156.167] and Process [V7]"}
22:08:58 - Contents - /postServerProcessDetails/ - Success:PostServerProcessDetails Posted For IP [209.59.156.167] and Process [V7] - 200
22:08:58 - update queue_status set stat_last_update=NOW(), type_cnt = 46, type_loop_cnt = 509 where type_val = 'V7'
22:08:58 - Curl Response - {"code":200,"status":"Success:PostServerProcessDetails Posted For IP [209.59.156.167] and Process [V7]"}
22:08:58 - Contents - /postServerProcessDetails/ - Success:PostServerProcessDetails Posted For IP [209.59.156.167] and Process [V7] - 200
22:08:58 - ========== 46  - 274 mins 358.23847826087 Video Process / Start:2024-06-24 15:36:02 / Mod:6/16======
22:08:59 - Fetching  Video Jobs Mod Val : 6 Mod Limit : 16 Queue ID : 0 

22:08:59 - ========select * from message_remote_queue, hvo_data where queue_id%16 = 6 and image = 1 and video = 0 and error = 0 and hvo_queue_id = queue_id   order by high_priority_row desc, queue_id asc limit 1==================count =1
22:08:59 - Processing Auto VideoFKEY:6A62BBAE-B4DC-298F-B208-EBBAB6FA9517 - QueueID:306806 
22:08:59 - CLIENT INFO  CLIENT_FK  : 504C4200-3C75-E438-B3B0-B44F2CED3A34 ,CLIENT_INFO :{"client_id":"5956","client_fk":"504C4200-3C75-E438-B3B0-B44F2CED3A34","client_acc_id":"3","client_name":"Toyota Direct","client_desc":"Toyota Direct","client_color":"00DBDB","client_player_color":"","client_textcolor":"","client_tts_text":"","client_tts_options":"","client_inactive":"0","client_createdate":"2016-08-05 14:02:46","client_enddate":"","client_update":"2023-12-07 08:27:30","client_email_forward":"","client_dealer_id":"2182142","client_franchise_number":"","client_salesperson_name":"Internet Sales","client_address":"4248 Morse Road","client_city":"Columbus","client_state":"OH","client_zip":"43230","client_phone":"888-279-1570","client_url":"http://www.toyotadirect.com","client_fb_id":"0","client_km":"0","client_special_price":"0","client_demo":"0","client_utube_flag":"1","client_cvo":"0","client_tts":"0","client_live_uv":"1","client_live_overlay":"2","client_av":"0","client_gv":"0","client_af":"0","client_video_email":"0","client_carfax":"0","client_intro":"0","client_outro":"1","client_slider":"0","client_music_id":"10","client_ei":"0","client_tts_vm":"2","client_hvo":"1","client_mobile":"0","client_portal":"0","client_instavid":"0","client_new_stock_video":"0","client_vidmagnet":"0","client_auto_play":"1","client_cpo":"1","client_vid_stab":"0","client_vp":"0","client_xl":"1","client_carstory":"0","client_360_player":"0","client_ece":"0","client_capture_video":"0","client_new_cvo":"0","client_pip":"1","client_account_id":"1","client_crm_email":"","client_crm_dealer_id":"","client_crm_dealer_key":"","client_archive":"0","client_damage_photo":"0","client_package":"5","client_video_size":"HDXLARGE","client_video_style":"FULL","client_lat_lng":"","client_comments":"","ftp_extract_images":"0","OUTRO_AUDIO":"YES","VIDEO_SIZE":"HD-XLARGE","SHOW_CARSTORY":"0"}
22:08:59 - Rest Call: /client/videoDetails/504C4200-3C75-E438-B3B0-B44F2CED3A34?video_key=6A62BBAE-B4DC-298F-B208-EBBAB6FA9517
22:09:00 - Curl Response - {"video_id":"48906290","video_fk":"6A62BBAE-B4DC-298F-B208-EBBAB6FA9517","vehicle_id":"43130416","video_client_id":"5956","video_script":"THIS VEHICLE IS LOCATED AT OUR DRIVE DIRECT LOCATION 2361 MORSE RD. COLUMBUS, OHIO 43229.PRICED $3430 BELOW KBB FAIR PURCHASE PRICE!!! CARFAX VERIFIED 1 OWNER!! *DESIRABLE FEATURES:* CARFAX 1-OWNER, APPLE CARPLAY, HEATED SEATS, COOLED SEATS, LEATHER, 3RD ROW SEAT, ANDROID AUTO, HEATED WHEEL, NAVIGATION, HEATED-REAR SEATS, REMOTE START, WIFI, POWER LIFT-GATE, 4X4, PREMIUM AUDIO, ALUMINUM-WHEELS.This four wheel drive 2017 Ford Explorer Limited features an impressive 3.5 Engine with a Blue Exterior with a Ebony Black Leather Interior. With only 116,272 miles this 2017 Ford Explorer is your best buy in Columbus, OH.*TECHNOLOGY FEATURES:* This 2017 Ford Explorer in Columbus, OH Includes: Premium Sony Audio System, WiFi Mobile Hotspot, GPS System, Keyless Start, Sync 3, SiriusXM Satellite Radio, Bluetooth Connection, Garage Door Opener, Smart Device Integration, HD Radio, Keyless Entry*STOCK# HGB44765* Drive Direct has this 2017 Ford Explorer Limited ready for a quick sale today. Don't forget Drive Direct Columbus will buy or trade for your car, truck, SUV, van, motorcycle and\/or ATV!*DEALER CONTACT INFO:* Call Drive Direct today at *614-476-4118 TO SCHEDULE YOUR TEST DRIVE* of this 2017 Ford Explorer Limited! Drive Direct of Columbus, New Albany, Gahanna, Westerville & Worthington, OH. You can also visit us at, 2361 Morse Rd. Columbus OH, 43229 to check it out in person!*MECHANICAL FEATURES:* Scores 25.0 Highway MPG and 18.0 City MPG! This Ford Explorer comes Factory equipped with an impressive 3.5 engine, an 6-speed automatic w\/od transmission. Other Installed Mechanical Features Include Heated Mirrors, Adjustable Pedals, Push Button Start, Power Windows, Power Mirrors, Traction Control, Power Locks, Disc Brakes, Cruise Control, Power Passenger Seat, Intermittent Wipers, Remote Trunk Release, Tires - Front Performance, Tires - Rear Performance, Trip Computer, Power Steering, Tachometer, Variable Speed Intermittent Wipers*INTERIOR OPTIONS:* New Albany, Gahanna & Westerville, OH used car shoppers are lighting up the phones at our Columbus OH dealership over these interior options: Automatic Climate Control, Leather Seats, Dual Power Seats, Adjustable Lumbar Seats, Memory Seats, Leather Wrapped Steering Wheel, Woodgrain Trim, Overhead Console, Power Drivers Seat, Compass, Pass-Through Rear Seat, Illuminated entry, Bucket Seats, Steering Wheel Cruise Control, Air Conditioning, Telescoping Wheel, Memory Mirrors, Driver Illuminated Vanity Mirror, Rear Reading Lights, Steering Wheel Audio Controls, Multi-zone Climate Control, Passenger Illuminated Visor Mirror, Rear Seat Center Armrest, Single-Disc CD Player, Steering Wheel Controls, Center Armrest, Rear Window Defroster, Trip Odometer, Auxiliary Audio Input, MP3 Compatible Radio, Bench Seat, Split Folding Rear Seat, Floor Mats, Vanity Mirrors, Outside Temperature Gauge, Tilt Steering Wheel, Reading Lights, AM\/FM Stereo*EXTERIOR OPTIONS:* Whether driving to From New Albany to Westerville, you'll arrive in style with exterior options like: Alloy Wheels, Color Matched Bumpers, Fog Lights, Power Folding Mirrors, Privacy Glass, Auto Headlamp, Rear Window Wiper, Spare Tire *Small Size*, Spoiler \/ Ground Effects*SAFETY OPTIONS:* Whether making a cross-town Columbus commute from Worthington to Grove City or car pooling precious cargo to after school sports practice, you'll enjoy peace of mind with the following safety equipment options: Rear Parking Aid, Back-Up Camera, Electronic Stability Control, Anti Theft System, Brake Assist, Driver Restriction Features, LED Headlights, Emergency communication system, Integrated Turn Signal Mirrors, Daytime Running Lights, Tire Pressure Monitoring System, ABS Brakes, Dual Air Bags, Knee AirBag, Overhead airbag, Drivers Air Bag, Delay-off headlights, Rear Air Bag, Speed Sensitive Steering, Auto Highbeams, Child Proof Locks, Front Head Air Bag, Passenger Air Bag Sensor, Driver Front Side Air Bag, Auto Dimming R\/V Mirror, Passenger Front Side Impact Airbag*Used Cars Columbus Ohio:* with over 365 used cars for sale at our Columbus, Ohio dealership. Drive Direct has the used cars Columbus, Ohio shoppers trust for safety, reliability and service. This week you'll select from one of the 2 Ford Explorer suvs like this Blue 2017 Ford Explorer Limited that we have in stock!","video_tts_script":"THIS VEHICLE IS LOCATED AT OUR DRIVE DIRECT LOCATION 2361 MORSE RD. COLUMBUS, OHIO 43229.PRICED $3430 BELOW KBB FAIR PURCHASE PRICE!!! CARFAX VERIFIED 1 OWNER!! *DESIRABLE FEATURES:* CARFAX 1-OWNER, APPLE CARPLAY, HEATED SEATS, COOLED SEATS, LEATHER, 3RD ROW SEAT, ANDROID AUTO, HEATED WHEEL, NAVIGATION, HEATED-REAR SEATS, REMOTE START, WIFI, POWER LIFT-GATE, 4X4, PREMIUM AUDIO, ALUMINUM-WHEELS.This four wheel drive 2017 Ford Explorer Limited features an impressive 3.5 Engine with a Blue Exterior with a Ebony Black Leather Interior. With only 116,272 miles this 2017 Ford Explorer is your best buy in Columbus, OH.*TECHNOLOGY FEATURES:* This 2017 Ford Explorer in Columbus, OH Includes: Premium Sony Audio System, WiFi Mobile Hotspot, GPS System, Keyless Start, Sync 3, SiriusXM Satellite Radio, Bluetooth Connection, Garage Door Opener, Smart Device Integration, HD Radio, Keyless Entry*STOCK# HGB44765* Drive Direct has this 2017 Ford Explorer Limited ready for a quick sale today. Don't forget Drive Direct Columbus will buy or trade for your car, truck, SUV, van, motorcycle and\/or ATV!*DEALER CONTACT INFO:* Call Drive Direct today at *614-476-4118 TO SCHEDULE YOUR TEST DRIVE* of this 2017 Ford Explorer Limited! Drive Direct of Columbus, New Albany, Gahanna, Westerville & Worthington, OH. You can also visit us at, 2361 Morse Rd. Columbus OH, 43229 to check it out in person!*MECHANICAL FEATURES:* Scores 25.0 Highway MPG and 18.0 City MPG! This Ford Explorer comes Factory equipped with an impressive 3.5 engine, an 6-speed automatic w\/od transmission. Other Installed Mechanical Features Include Heated Mirrors, Adjustable Pedals, Push Button Start, Power Windows, Power Mirrors, Traction Control, Power Locks, Disc Brakes, Cruise Control, Power Passenger Seat, Intermittent Wipers, Remote Trunk Release, Tires - Front Performance, Tires - Rear Performance, Trip Computer, Power Steering, Tachometer, Variable Speed Intermittent Wipers*INTERIOR OPTIONS:* New Albany, Gahanna & Westerville, OH used car shoppers are lighting up the phones at our Columbus OH dealership over these interior options: Automatic Climate Control, Leather Seats, Dual Power Seats, Adjustable Lumbar Seats, Memory Seats, Leather Wrapped Steering Wheel, Woodgrain Trim, Overhead Console, Power Drivers Seat, Compass, Pass-Through Rear Seat, Illuminated entry, Bucket Seats, Steering Wheel Cruise Control, Air Conditioning, Telescoping Wheel, Memory Mirrors, Driver Illuminated Vanity Mirror, Rear Reading Lights, Steering Wheel Audio Controls, Multi-zone Climate Control, Passenger Illuminated Visor Mirror, Rear Seat Center Armrest, Single-Disc CD Player, Steering Wheel Controls, Center Armrest, Rear Window Defroster, Trip Odometer, Auxiliary Audio Input, MP3 Compatible Radio, Bench Seat, Split Folding Rear Seat, Floor Mats, Vanity Mirrors, Outside Temperature Gauge, Tilt Steering Wheel, Reading Lights, AM\/FM Stereo*EXTERIOR OPTIONS:* Whether driving to From New Albany to Westerville, you'll arrive in style with exterior options like: Alloy Wheels, Color Matched Bumpers, Fog Lights, Power Folding Mirrors, Privacy Glass, Auto Headlamp, Rear Window Wiper, Spare Tire *Small Size*, Spoiler \/ Ground Effects*SAFETY OPTIONS:* Whether making a cross-town Columbus commute from Worthington to Grove City or car pooling precious cargo to after school sports practice, you'll enjoy peace of mind with the following safety equipment options: Rear Parking Aid, Back-Up Camera, Electronic Stability Control, Anti Theft System, Brake Assist, Driver Restriction Features, LED Headlights, Emergency communication system, Integrated Turn Signal Mirrors, Daytime Running Lights, Tire Pressure Monitoring System, ABS Brakes, Dual Air Bags, Knee AirBag, Overhead airbag, Drivers Air Bag, Delay-off headlights, Rear Air Bag, Speed Sensitive Steering, Auto Highbeams, Child Proof Locks, Front Head Air Bag, Passenger Air Bag Sensor, Driver Front Side Air Bag, Auto Dimming R\/V Mirror, Passenger Front Side Impact Airbag*Used Cars Columbus Ohio:* with over 365 used cars for sale at our Columbus, Ohio dealership. Drive Direct has the used cars Columbus, Ohio shoppers trust for safety, reliability and service. This week you'll select from one of the 2 Ford Explorer suvs like this Blue 2017 Ford Explorer Limited that we have in stock!","video_flv":"","video_create_time":"2024-05-19 02:06:47","video_update_time":"2024-06-24 22:05:00","audio_length":"0","video_options":"EQUIPMENT GROUP 300A,WHEELS: 20  PREMIUM PAINTED ALUMINUM  (STD),ENGINE: 3.5L TI-VCT V6,Navigation System,Equipment Group 300A,12 Speakers,AM\/FM radio: SiriusXM,CD player,Premium audio system: Sony,Radio data system,Radio: Sony Audio System w\/Single-CD\/MP3-Capable,SYNC 3 Communications & Entertainment System,Air Conditioning,Automatic temperature control,Front dual zone A\/C,Rear air conditioning,Rear window defroster,Memory seat,Pedal memory,Power driver seat,Power steering,Power windows,Remote keyless entry,Steering wheel memory,Steering wheel mounted audio controls,Four wheel independent suspension,Speed-sensing steering,Traction control,4-Wheel Disc Brakes,ABS brakes,Dual front impact airbags,Dual front side impact airbags,Emergency communication system: SYNC 3 911 Assist,Front anti-roll bar,Knee airbag,Low tire pressure warning,Occupant sensing airbag,Overhead airbag,Rear anti-roll bar,Power Liftgate,Brake assist,Electronic Stability Control,Exterior Parking Camera Rear,Delay-off headlights,Front fog lights,Fully automatic headlights,Panic alarm,Security system,Speed control,Bumpers: body-color","video_custom_flag":"0","video_title":"2017 FORD EXPLORER Gahanna, OH","video_local_title":"2017 FORD EXPLORER Gahanna, OH","video_frames":"20","video_image_url":"\/avavids\/1\/clients\/5956\/images\/6A62BBAE-B4DC-298F-B208-EBBAB6FA9517_","video_pin_id":"0","video_tts_flag":"1","video_hvo_flag":"0","video_share":"1","video_default_flag":"1","video_imgsrc_urls":"https:\/\/content.homenetiol.com\/c33925fedba94d048bcec918f996c2b2.jpg,https:\/\/content.homenetiol.com\/4687672667a741fcaebdb186a4117c90.jpg,https:\/\/content.homenetiol.com\/611acb2e370f48fc9367c14f9444e4a8.jpg,https:\/\/content.homenetiol.com\/2a63de0b5415402a827215f84c179165.jpg,https:\/\/content.homenetiol.com\/f9f5ff02bcbd4c84a30c99995501bfd9.jpg,https:\/\/content.homenetiol.com\/2de8b35efb48455594d23e89d564ec6e.jpg,https:\/\/content.homenetiol.com\/d2971731e5b445fb84e4a271fd1597e0.jpg,https:\/\/content.homenetiol.com\/c6d1ba8652fa465c92f3c21ed6d76dd2.jpg,https:\/\/content.homenetiol.com\/42ec30f808c143cbbdf86c1fa381b4bc.jpg,https:\/\/content.homenetiol.com\/28fd1c7e559c402f8461b6f18ef36213.jpg,https:\/\/content.homenetiol.com\/4f45851ae17b4935ad5cd27af0760f9a.jpg,https:\/\/content.homenetiol.com\/b18f603de101430185bd0eba0db51ba8.jpg,https:\/\/content.homenetiol.com\/aef8659a4eca401f80010b00a9c26c1c.jpg,https:\/\/content.homenetiol.com\/72f24e784f3349b49a9a8e5652304d90.jpg,https:\/\/content.homenetiol.com\/5d4ebbe3bbe54b2a835a8045e030b047.jpg,https:\/\/content.homenetiol.com\/5ced0e3059b74b2e9bd7082b8f1b3396.jpg,https:\/\/content.homenetiol.com\/613a5dee7e964861a6b4dbfbabf47702.jpg,https:\/\/content.homenetiol.com\/7339336d458544c6afd1d2d00b3a19af.jpg,https:\/\/content.homenetiol.com\/3e5a5d602b0d4c4e9921fc2b2e6acc39.jpg,https:\/\/content.homenetiol.com\/31857194e9894093aa5ebeac21627476.jpg,https:\/\/content.homenetiol.com\/df013ebca1bc4db4899977ee309e804b.jpg,https:\/\/content.homenetiol.com\/a460cd8aa8c24438910b928a156190d0.jpg,https:\/\/content.homenetiol.com\/21c49fcf2ed24b41ba49aa541d116ed0.jpg","video_thumbnail_url":"","video_rendering_flag":"0","video_error_rendering":"","video_view_cnt":"5","video_delete_flag":"0","video_delete_time":"","video_batch_proc":"0","video_meta_data":"","video_custom_default":"0","video_external_flv":"https:\/\/gcsimages.s3.us-west-001.backblazeb2.com\/clients\/5956\/video\/6A62BBAE-B4DC-298F-B208-EBBAB6FA9517.mp4","video_external_wflv":"","video_external_iflv":"","video_custom_uploaded":"0","vehicle_client_id":"5956","vehicle_fkey":"2F722D52-34AA-FE57-AB42-CDABF834D506","vehicle_uid":"1548224775","vehicle_vin":"1FM5K8F83HGB44765","vehicle_stock":"HGB44765","vehicle_year":"2017","vehicle_make":"Ford","vehicle_model":"Explorer","vehicle_trim":"Limited","vehicle_price":"13995","vehicle_mileage":"116272","vehicle_int_color":"Ebony Black","vehicle_ext_color":"Blue","vehicle_body_type":"4D Sport Utility","vehicle_listing_type":"Used","vehicle_citympg":"","vehicle_hwympg":"","vehicle_combmpg":"","vehicle_cylinders":"6","vehicle_engine_size":"3.5","vehicle_trans":"Automatic","vehicle_drivetrain":"4WD","vehicle_passengers":"0","vehicle_doors":"4","vehicle_certified":"0","vehicle_special":"0","vehicle_options":"EQUIPMENT GROUP 300A,WHEELS: 20  PREMIUM PAINTED ALUMINUM  (STD),ENGINE: 3.5L TI-VCT V6,Navigation System,Equipment Group 300A,12 Speakers,AM\/FM radio: SiriusXM,CD player,Premium audio system: Sony,Radio data system,Radio: Sony Audio System w\/Single-CD\/MP3-Capable,SYNC 3 Communications & Entertainment System,Air Conditioning,Automatic temperature control,Front dual zone A\/C,Rear air conditioning,Rear window defroster,Memory seat,Pedal memory,Power driver seat,Power steering,Power windows,Remote keyless entry,Steering wheel memory,Steering wheel mounted audio controls,Four wheel independent suspension,Speed-sensing steering,Traction control,4-Wheel Disc Brakes,ABS brakes,Dual front impact airbags,Dual front side impact airbags,Emergency communication system: SYNC 3 911 Assist,Front anti-roll bar,Knee airbag,Low tire pressure warning,Occupant sensing airbag,Overhead airbag,Rear anti-roll bar,Power Liftgate,Brake assist,Electronic Stability Control,Exterior Parking Camera Rear,Delay-off headlights,Front fog lights,Fully automatic headlights,Panic alarm,Security system,Speed control,Bumpers: body-color","vehicle_desc":"2017 FORD EXPLORER Gahanna, OHStock# HGB44765614-989-3799For more information on this vehicle and our full inventory, call 614-989-3799.Toyota Direct4248 Morse RdGahanna, OH 43230THIS VEHICLE IS LOCATED AT OUR DRIVE DIRECT LOCATION 2361 MORSE RD. COLUMBUS, OHIO 43229.PRICED $3430 BELOW KBB FAIR PURCHASE PRICE!!! CARFAX VERIFIED 1 OWNER!! *DESIRABLE FEATURES:* CARFAX 1-OWNER, APPLE CARPLAY, HEATED SEATS, COOLED SEATS, LEATHER, 3RD ROW SEAT, ANDROID AUTO, HEATED WHEEL, NAVIGATION, HEATED-REAR SEATS, REMOTE START, WIFI, POWER LIFT-GATE, 4X4, PREMIUM AUDIO, ALUMINUM-WHEELS.This four wheel drive 2017 Ford Explorer Limited features an impressive 3.5 Engine with a Blue Exterior with a Ebony Black Leather Interior. With only 116,272 miles this 2017 Ford Explorer is your best buy in Columbus, OH.*TECHNOLOGY FEATURES:* This 2017 Ford Explorer in Columbus, OH Includes: Premium Sony Audio System, WiFi Mobile Hotspot, GPS System, Keyless Start, Sync 3, SiriusXM Satellite Radio, Bluetooth Connection, Garage Door Opener, Smart Device Integration, HD Radio, Keyless Entry*STOCK# HGB44765* Drive Direct has this 2017 Ford Explorer Limited ready for a quick sale today. Don't forget Drive Direct Columbus will buy or trade for your car, truck, SUV, van, motorcycle and\/or ATV!*DEALER CONTACT INFO:* Call Drive Direct today at *614-476-4118 TO SCHEDULE YOUR TEST DRIVE* of this 2017 Ford Explorer Limited! Drive Direct of Columbus, New Albany, Gahanna, Westerville & Worthington, OH. You can also visit us at, 2361 Morse Rd. Columbus OH, 43229 to check it out in person!*MECHANICAL FEATURES:* Scores 25.0 Highway MPG and 18.0 City MPG! This Ford Explorer comes Factory equipped with an impressive 3.5 engine, an 6-speed automatic w\/od transmission. Other Installed Mechanical Features Include Heated Mirrors, Adjustable Pedals, Push Button Start, Power Windows, Power Mirrors, Traction Control, Power Locks, Disc Brakes, Cruise Control, Power Passenger Seat, Intermittent Wipers, Remote Trunk Release, Tires - Front Performance, Tires - Rear Performance, Trip Computer, Power Steering, Tachometer, Variable Speed Intermittent Wipers*INTERIOR OPTIONS:* New Albany, Gahanna & Westerville, OH used car shoppers are lighting up the phones at our Columbus OH dealership over these interior options: Automatic Climate Control, Leather Seats, Dual Power Seats, Adjustable Lumbar Seats, Memory Seats, Leather Wrapped Steering Wheel, Woodgrain Trim, Overhead Console, Power Drivers Seat, Compass, Pass-Through Rear Seat, Illuminated entry, Bucket Seats, Steering Wheel Cruise Control, Air Conditioning, Telescoping Wheel, Memory Mirrors, Driver Illuminated Vanity Mirror, Rear Reading Lights, Steering Wheel Audio Controls, Multi-zone Climate Control, Passenger Illuminated Visor Mirror, Rear Seat Center Armrest, Single-Disc CD Player, Steering Wheel Controls, Center Armrest, Rear Window Defroster, Trip Odometer, Auxiliary Audio Input, MP3 Compatible Radio, Bench Seat, Split Folding Rear Seat, Floor Mats, Vanity Mirrors, Outside Temperature Gauge, Tilt Steering Wheel, Reading Lights, AM\/FM Stereo*EXTERIOR OPTIONS:* Whether driving to From New Albany to Westerville, you'll arrive in style with exterior options like: Alloy Wheels, Color Matched Bumpers, Fog Lights, Power Folding Mirrors, Privacy Glass, Auto Headlamp, Rear Window Wiper, Spare Tire *Small Size*, Spoiler \/ Ground Effects*SAFETY OPTIONS:* Whether making a cross-town Columbus commute from Worthington to Grove City or car pooling precious cargo to after school sports practice, you'll enjoy peace of mind with the following safety equipment options: Rear Parking Aid, Back-Up Camera, Electronic Stability Control, Anti Theft System, Brake Assist, Driver Restriction Features, LED Headlights, Emergency communication system, Integrated Turn Signal Mirrors, Daytime Running Lights, Tire Pressure Monitoring System, ABS Brakes, Dual Air Bags, Knee AirBag, Overhead airbag, Drivers Air Bag, Delay-off headlights, Rear Air Bag, Speed Sensitive Steering, Auto Highbeams, Child Proof Locks, Front Head Air Bag, Passenger Air Bag Sensor, Driver Front Side Air Bag, Auto Dimming R\/V Mirror, Passenger Front Side Impact Airbag*Used Cars Columbus Ohio:* with over 365 used cars for sale at our Columbus, Ohio dealership. Drive Direct has the used cars Columbus, Ohio shoppers trust for safety, reliability and service. This week you'll select from one of the 2 Ford Explorer suvs like this Blue 2017 Ford Explorer Limited that we have in stock!","vehicle_chrome_style_id":"","vehicle_model_num":"","vehicle_stock_video":"0","vehicle_img_cnt":"23","veh_more_info":"","vehicle_create_date":"2024-05-19 02:06:47","vehicle_update_date":"2024-06-24 22:04:06","vehicle_md5":"8e3d70be93647183c707b529638efabc","vehicle_status":"U","vehicle_add":"0","vehicle_delete_flag":"0","vehicle_delete_time":""}
22:09:00 - Rest Call: /client/getAudioVideoConfig/504C4200-3C75-E438-B3B0-B44F2CED3A34?listing_type=Used&video_type=Auto&certified=0&vehicle_make=Ford
22:09:00 - Curl Response - {"BG_MUSIC":"Orchestra-3_30","THEME_BG_COLOR":"ffffff","THEME_ACCENTS_COLOR":"047ec1","THEME_FONT_COLOR":"000000","THEME_FONT":"Din","THEME_STYLE":"Ren","BG_VOL_LEVEL":"0.25","AUDIO_VO":"VO","VIDEO_SIZE":"HD-XLARGE","CUSTOM_INTRO":"","CUSTOM_OUTRO":"","THEME_KEY":"3_0_Auto_Default_0_ALL","THEME_RANK":"2","THEME_CONFIG":"RESELLER_CONFIG","DISABLE_PRICE":"YES","DISPLAY_INFO":"NO","DISPLAY_MAP":"NO","DISPLAY_MILEAGE":"NO","DISPLAY_OPTIONS":"NO","DISPLAY_PRICE":"NO","OUTRO_AUDIO":"YES","OLD_BG_STYLE":"0"}
22:09:00 - Return from CheckProfileVal function::1 - DISABLE_PRICE - YES
22:09:00 - Return from CheckProfileVal function::0 - DISABLE_MILEAGE - YES
22:09:00 - Return from CheckProfileVal function::0 - DISABLE_CARSTORY - YES
22:09:00 - Config Information for 6A62BBAE-B4DC-298F-B208-EBBAB6FA9517 - Width:960 - CPO:1/0 - CF:0 - CS:0  - Intro:0 - Outro:1 - Ovleray:2 -THEME:3_0_Auto_Default_0_ALL
22:09:00 - https://content.homenetiol.com/c33925fedba94d048bcec918f996c2b2.jpg /var/www/html/clients/5956/images/6A62BBAE-B4DC-298F-B208-EBBAB6FA9517_1.jpg
22:09:00 - https://content.homenetiol.com/4687672667a741fcaebdb186a4117c90.jpg /var/www/html/clients/5956/images/6A62BBAE-B4DC-298F-B208-EBBAB6FA9517_2.jpg
22:09:00 - https://content.homenetiol.com/611acb2e370f48fc9367c14f9444e4a8.jpg /var/www/html/clients/5956/images/6A62BBAE-B4DC-298F-B208-EBBAB6FA9517_3.jpg
22:09:00 - https://content.homenetiol.com/2a63de0b5415402a827215f84c179165.jpg /var/www/html/clients/5956/images/6A62BBAE-B4DC-298F-B208-EBBAB6FA9517_4.jpg
22:09:00 - https://content.homenetiol.com/f9f5ff02bcbd4c84a30c99995501bfd9.jpg /var/www/html/clients/5956/images/6A62BBAE-B4DC-298F-B208-EBBAB6FA9517_5.jpg
22:09:00 - https://content.homenetiol.com/2de8b35efb48455594d23e89d564ec6e.jpg /var/www/html/clients/5956/images/6A62BBAE-B4DC-298F-B208-EBBAB6FA9517_6.jpg
22:09:00 - https://content.homenetiol.com/d2971731e5b445fb84e4a271fd1597e0.jpg /var/www/html/clients/5956/images/6A62BBAE-B4DC-298F-B208-EBBAB6FA9517_7.jpg
22:09:00 - https://content.homenetiol.com/c6d1ba8652fa465c92f3c21ed6d76dd2.jpg /var/www/html/clients/5956/images/6A62BBAE-B4DC-298F-B208-EBBAB6FA9517_8.jpg
22:09:00 - https://content.homenetiol.com/42ec30f808c143cbbdf86c1fa381b4bc.jpg /var/www/html/clients/5956/images/6A62BBAE-B4DC-298F-B208-EBBAB6FA9517_9.jpg
22:09:00 - https://content.homenetiol.com/28fd1c7e559c402f8461b6f18ef36213.jpg /var/www/html/clients/5956/images/6A62BBAE-B4DC-298F-B208-EBBAB6FA9517_10.jpg
22:09:00 - https://content.homenetiol.com/4f45851ae17b4935ad5cd27af0760f9a.jpg /var/www/html/clients/5956/images/6A62BBAE-B4DC-298F-B208-EBBAB6FA9517_11.jpg
22:09:00 - https://content.homenetiol.com/b18f603de101430185bd0eba0db51ba8.jpg /var/www/html/clients/5956/images/6A62BBAE-B4DC-298F-B208-EBBAB6FA9517_12.jpg
22:09:00 - https://content.homenetiol.com/aef8659a4eca401f80010b00a9c26c1c.jpg /var/www/html/clients/5956/images/6A62BBAE-B4DC-298F-B208-EBBAB6FA9517_13.jpg
22:09:00 - https://content.homenetiol.com/72f24e784f3349b49a9a8e5652304d90.jpg /var/www/html/clients/5956/images/6A62BBAE-B4DC-298F-B208-EBBAB6FA9517_14.jpg
22:09:00 - https://content.homenetiol.com/5d4ebbe3bbe54b2a835a8045e030b047.jpg /var/www/html/clients/5956/images/6A62BBAE-B4DC-298F-B208-EBBAB6FA9517_15.jpg
22:09:00 - https://content.homenetiol.com/5ced0e3059b74b2e9bd7082b8f1b3396.jpg /var/www/html/clients/5956/images/6A62BBAE-B4DC-298F-B208-EBBAB6FA9517_16.jpg
22:09:00 - https://content.homenetiol.com/613a5dee7e964861a6b4dbfbabf47702.jpg /var/www/html/clients/5956/images/6A62BBAE-B4DC-298F-B208-EBBAB6FA9517_17.jpg
22:09:00 - https://content.homenetiol.com/7339336d458544c6afd1d2d00b3a19af.jpg /var/www/html/clients/5956/images/6A62BBAE-B4DC-298F-B208-EBBAB6FA9517_18.jpg
22:09:00 - https://content.homenetiol.com/3e5a5d602b0d4c4e9921fc2b2e6acc39.jpg /var/www/html/clients/5956/images/6A62BBAE-B4DC-298F-B208-EBBAB6FA9517_19.jpg
22:09:00 - https://content.homenetiol.com/31857194e9894093aa5ebeac21627476.jpg /var/www/html/clients/5956/images/6A62BBAE-B4DC-298F-B208-EBBAB6FA9517_20.jpg
22:09:00 - Image Count 20
22:09:00 - Setting Female English VO Constants | 0 | 0
22:09:00 - ====HVO Value:1, Audio Value:0===
22:09:00 - Return from CheckProfileVal function::0 - AUDIO_INTRO - 
22:09:00 - Return from CheckProfileVal function::0 - AUDIO_OUTRO - 
22:09:00 - ================Process HVO=========== 
 1
22:09:00 - ================CLIENT SELECT TTS VM VALUE=========== 
 2
22:09:00 - 2 - 2 - /var/app/video_pre_processor/assets/hvo/
22:09:00 - Setting Female English VO Constants | 0 | 2
22:09:00 - HVO Soap Call Method - AudoListWMIE 

22:09:00 - Getting Text For Audio Files
22:09:00 - HVO Soap Call Method - AudoListTWMIE 

22:09:00 - Getting Text For Audio Files emotionalFile 13
22:09:00 - HVO Soap Call Method - GetTTScripts 

22:09:00 - Getting Text For Audio Files introEmotionalFile 23
22:09:00 - HVO Soap Call Method - GetTTScripts 

22:09:00 - Getting Text For Audio Files scriptFile 23
22:09:00 - HVO Soap Call Method - GetTTScripts 

22:09:00 - ================TTS VM VALUE=========== 
 2
22:09:00 - ================GetVOFiles=========== 
 {"OptionFiles":[{"option_str":"* General Options Intro","option_file":"http:\/\/hvo.flickfusion.net\/audio\/options\/options_fe_audio_file_55.mp3","option_saftey":1},{"option_str":"Traction Control","option_file":"http:\/\/hvo.flickfusion.net\/audio\/options\/options_fe_audio_file_18.mp3","option_saftey":2},{"option_str":"Navigation System","option_file":"http:\/\/hvo.flickfusion.net\/audio\/options\/options_fe_audio_file_219.mp3","option_saftey":1},{"option_str":"Power Liftgate","option_file":"http:\/\/hvo.flickfusion.net\/audio\/options\/options_fe_audio_file_238.mp3","option_saftey":1},{"option_str":"Dual Air Bags","option_file":"http:\/\/hvo.flickfusion.net\/audio\/options\/options_fe_audio_file_154.mp3","option_saftey":2},{"option_str":"air conditioning","option_file":"http:\/\/hvo.flickfusion.net\/audio\/options\/options_fe_audio_file_1419.mp3","option_saftey":1},{"option_str":"Power Steering","option_file":"http:\/\/hvo.flickfusion.net\/audio\/options\/options_fe_audio_file_244.mp3","option_saftey":1},{"option_str":"4-Wheel Disc Brakes","option_file":"http:\/\/hvo.flickfusion.net\/audio\/options\/options_fe_audio_file_63.mp3","option_saftey":1},{"option_str":"FOG LIGHTS","option_file":"http:\/\/hvo.flickfusion.net\/audio\/options\/options_fe_audio_file_167.mp3","option_saftey":1},{"option_str":"CD Player","option_file":"http:\/\/hvo.flickfusion.net\/audio\/options\/options_fe_audio_file_111.mp3","option_saftey":1},{"option_str":"Rear Window Defroster","option_file":"http:\/\/hvo.flickfusion.net\/audio\/options\/options_fe_audio_file_269.mp3","option_saftey":1},{"option_str":"SECURITY SYSTEM","option_file":"http:\/\/hvo.flickfusion.net\/audio\/options\/options_fe_audio_file_996.mp3","option_saftey":1},{"option_str":"Memory Seat","option_file":"","option_saftey":1},{"option_str":"Power Windows","option_file":"http:\/\/hvo.flickfusion.net\/audio\/options\/options_fe_audio_file_2.mp3","option_saftey":1},{"option_str":"Electronic Stability Control","option_file":"http:\/\/hvo.flickfusion.net\/audio\/options\/options_fe_audio_file_162.mp3","option_saftey":1},{"option_str":"Brake Assist","option_file":"http:\/\/hvo.flickfusion.net\/audio\/options\/options_fe_audio_file_104.mp3","option_saftey":1},{"option_str":"Panic alarm","option_file":"http:\/\/hvo.flickfusion.net\/audio\/options\/options_fe_audio_file_966.mp3","option_saftey":1},{"option_str":"Remote Keyless Entry","option_file":"http:\/\/hvo.flickfusion.net\/audio\/options\/options_fe_audio_file_273.mp3","option_saftey":1},{"option_str":"Power Driver Seat","option_file":"http:\/\/hvo.flickfusion.net\/audio\/options\/options_fe_audio_file_237.mp3","option_saftey":1},{"option_str":"SPEED CONTROL","option_file":"http:\/\/hvo.flickfusion.net\/audio\/options\/options_fe_audio_file_375.mp3","option_saftey":1},{"option_str":" 4-PIECE FLOOR MAT SET ","option_file":"http:\/\/hvo.flickfusion.net\/audio\/options\/options_fe_audio_file_357.mp3","option_saftey":1},{"option_str":"* Safety Options Intro","option_file":"http:\/\/hvo.flickfusion.net\/audio\/options\/options_fe_audio_file_19.mp3","option_saftey":2},{"option_str":"RADIO DATA SYSTEM","option_file":"http:\/\/hvo.flickfusion.net\/audio\/options\/options_fe_audio_file_692.mp3","option_saftey":1},{"option_str":"LOW TIRE PRESSURE WARNING","option_file":"http:\/\/hvo.flickfusion.net\/audio\/options\/options_fe_audio_file_689.mp3","option_saftey":1},{"option_str":" 4-PIECE FLOOR MAT SET ","option_file":"http:\/\/hvo.flickfusion.net\/audio\/options\/options_fe_audio_file_357.mp3","option_saftey":1}],"yearFile":"http:\/\/hvo.flickfusion.net\/audio\/year\/year_fe_audio_file_34.mp3","makeFile":"http:\/\/hvo.flickfusion.net\/audio\/makes\/make_name_fe_audio_file_14.mp3","modelFile":"http:\/\/hvo.flickfusion.net\/audio\/mdlnames\/model_name_fe_audio_file_26.mp3","modelHighlightFile":"http:\/\/hvo.flickfusion.net\/audio\/models\/model_fe_audio_file_26.mp3","styleFile":"","bodytypeFile":"","transFile":"http:\/\/hvo.flickfusion.net\/audio\/domain_transmission\/transmission_fe_audio_file_2.mp3","engineFile":"http:\/\/hvo.flickfusion.net\/audio\/domain_enginesize\/enginesize_fe_audio_file_7.mp3","cylindersFile":"http:\/\/hvo.flickfusion.net\/audio\/domain_cylinders\/cylinder_fe_audio_file_5.mp3","driveTrainFile":"http:\/\/hvo.flickfusion.net\/audio\/domain_drivetrain\/drivetrain_fe_audio_file_5.mp3","priceFile":"","mileageFile":"http:\/\/hvo.flickfusion.net\/audio\/mileage\/miles_fe_audio_file_26.mp3","carfaxFile":"","emotionalFile":"http:\/\/hvo.flickfusion.net\/audio\/emotional\/emotional_fe_audio_file_13.mp3","introEmotionalFile":"http:\/\/hvo.flickfusion.net\/audio\/emotional\/ie_fe_audio_file_23.mp3","scriptFile":"http:\/\/hvo.flickfusion.net\/audio\/domain_scripts\/script_fe_audio_file_23.mp3","statusCode":"1","statusMessage":"Audio Files Sent"}
22:09:00 - /var/www/html/clients/5956/audio/6A62BBAE-B4DC-298F-B208-EBBAB6FA9517.wav
22:09:00 - ================Process HVO SOAP CALL CMD=========== 
 /usr/bin/sox
 STATUS CODE 
 1
22:09:00 - /var/app/video_pre_processor/assets/hvo/ie_fe_audio_file_23.wav PlayTime:2.35
22:09:00 - /var/app/video_pre_processor/assets/hvo/year_fe_audio_file_34.wav PlayTime:1.8
22:09:00 - /var/app/video_pre_processor/assets/hvo/model_name_fe_audio_file_26.wav PlayTime:0.99
22:09:00 - /var/app/video_pre_processor/assets/hvo/model_fe_audio_file_26.wav PlayTime:5.59
22:09:00 - Skipping VTT for BODY - bodytypeFile
22:09:00 - Skipping VTT for PRICE - priceFile
22:09:00 - KM Check : 116272 | 0
22:09:00 - /var/app/video_pre_processor/assets/hvo/miles_fe_audio_file_26.wav PlayTime:3.4
22:09:00 - Curl Response - {"exterior":["Abs Brakes","Front Fog Lights","Power Liftgate","4-wheel Independent Suspension","Brake Assist","Remote Keyless Entry","Abs Brakes (rear Only)","Fog Lights","Anti-roll Bars","Auto Headlight On\/off","Body-color Bumpers","Speed Control","Headlights-auto-off","4-wheel Disc Brakes","Electronic Stability Control","Traction Control","Rear Window Defroster"],"interior":["Dual Front Side Impact Airbags","Occupant Sensing Airbag","Speed-sensing Steering","Automatic Temperature Control","Knee Airbag","Rear Air Conditioning","Emergency Communication System: Sync 3 911 Assist","Sync 3 Communications & Entertainment System","12 Speakers","Pedal Memory","Navigation System","Back-up Camera","Memorized Settings, Includes Steering Wheel","Sirius Satellite Radio","Steering Wheel Audio Controls","Security System","Automatic Climate Control","Power Windows","Power Steering","Airbags - Passenger - Occupant Sensing Deactivation","Seat Memory","Dual Front Air Bags","Dual Zone A\/c","Panic Alarm","Power Driver Seat","Radio Data System","Cd Player","Low Tire Pressure Warning","A\/c"]}
22:09:00 - ============={"exterior":["Abs Brakes","Front Fog Lights","Power Liftgate","4-wheel Independent Suspension","Brake Assist","Remote Keyless Entry","Abs Brakes (rear Only)","Fog Lights","Anti-roll Bars","Auto Headlight On\/off","Body-color Bumpers","Speed Control","Headlights-auto-off","4-wheel Disc Brakes","Electronic Stability Control","Traction Control","Rear Window Defroster"],"interior":["Dual Front Side Impact Airbags","Occupant Sensing Airbag","Speed-sensing Steering","Automatic Temperature Control","Knee Airbag","Rear Air Conditioning","Emergency Communication System: Sync 3 911 Assist","Sync 3 Communications & Entertainment System","12 Speakers","Pedal Memory","Navigation System","Back-up Camera","Memorized Settings, Includes Steering Wheel","Sirius Satellite Radio","Steering Wheel Audio Controls","Security System","Automatic Climate Control","Power Windows","Power Steering","Airbags - Passenger - Occupant Sensing Deactivation","Seat Memory","Dual Front Air Bags","Dual Zone A\/c","Panic Alarm","Power Driver Seat","Radio Data System","Cd Player","Low Tire Pressure Warning","A\/c"]}===============
22:09:00 - /var/app/video_pre_processor/assets/hvo/options_fe_audio_file_55.wav PlayTime:2.35
22:09:00 - /var/app/video_pre_processor/assets/hvo/options_fe_audio_file_238.wav PlayTime:1.2
22:09:00 - /var/app/video_pre_processor/assets/hvo/options_fe_audio_file_104.wav PlayTime:1.12
22:09:00 - /var/app/video_pre_processor/assets/hvo/options_fe_audio_file_273.wav PlayTime:1.7
22:09:00 - /var/app/video_pre_processor/assets/hvo/options_fe_audio_file_167.wav PlayTime:0.94
22:09:00 - /var/app/video_pre_processor/assets/hvo/options_fe_audio_file_375.wav PlayTime:1.25
22:09:00 - /var/app/video_pre_processor/assets/hvo/options_fe_audio_file_63.wav PlayTime:1.57
22:09:00 - /var/app/video_pre_processor/assets/hvo/options_fe_audio_file_162.wav PlayTime:1.88
22:09:00 - /var/app/video_pre_processor/assets/hvo/options_fe_audio_file_18.wav PlayTime:1.31
22:09:00 - /var/app/video_pre_processor/assets/hvo/options_fe_audio_file_269.wav PlayTime:1.52
22:09:00 - /var/app/video_pre_processor/assets/hvo/options_fe_audio_file_219.wav PlayTime:1.59
22:09:00 - ======= ALL Options  ========== 
null
22:09:00 - /var/www/html/clients/5956/audio/6A62BBAE-B4DC-298F-B208-EBBAB6FA9517_option.wav
22:09:00 - /usr/bin/sox /var/app/video_pre_processor/assets/hvo/options_fe_audio_file_55.wav /var/app/video_pre_processor/assets/hvo/options_fe_audio_file_238.wav /var/app/video_pre_processor/assets/hvo/options_fe_audio_file_104.wav /var/app/video_pre_processor/assets/hvo/options_fe_audio_file_273.wav /var/app/video_pre_processor/assets/hvo/options_fe_audio_file_167.wav /var/app/video_pre_processor/assets/hvo/options_fe_audio_file_375.wav /var/app/video_pre_processor/assets/hvo/options_fe_audio_file_63.wav /var/app/video_pre_processor/assets/hvo/options_fe_audio_file_162.wav /var/app/video_pre_processor/assets/hvo/options_fe_audio_file_18.wav /var/app/video_pre_processor/assets/hvo/options_fe_audio_file_269.wav /var/app/video_pre_processor/assets/hvo/options_fe_audio_file_219.wav /var/www/html/clients/5956/audio/6A62BBAE-B4DC-298F-B208-EBBAB6FA9517_option.wav
22:09:00 - /var/www/html/clients/5956/audio/6A62BBAE-B4DC-298F-B208-EBBAB6FA9517_option.wav PlayTime:16.43
22:09:00 - Skipping VTT for CARFAX - carfaxFile
22:09:00 - /var/app/video_pre_processor/assets/hvo/emotional_fe_audio_file_13.wav PlayTime:4.65
22:09:00 - /usr/bin/sox /var/app/video_pre_processor/assets/hvo/ie_fe_audio_file_23.wav /var/app/video_pre_processor/assets/hvo/year_fe_audio_file_34.wav /var/app/video_pre_processor/assets/hvo/model_name_fe_audio_file_26.wav /var/app/video_pre_processor/assets/hvo/model_fe_audio_file_26.wav /var/app/video_pre_processor/assets/hvo/miles_fe_audio_file_26.wav /var/www/html/clients/5956/audio/6A62BBAE-B4DC-298F-B208-EBBAB6FA9517_option.wav /var/app/video_pre_processor/assets/hvo/emotional_fe_audio_file_13.wav /var/www/html/clients/5956/audio/6A62BBAE-B4DC-298F-B208-EBBAB6FA9517_temp1.wav
22:09:01 - Return from CheckProfileVal function::0 - REPLACE_FULL_AUDIO - 
22:09:01 - Return from CheckProfileVal function::0 - REPLACE_FULL_AUDIO_NEW - 
22:09:01 - ========REPALCE AUDIO TRACK LISTING TYPE used \ n USED VALUE : 0 NEW AUDIO VALUE : { 0} ==============

22:09:01 - Video Length for audio merge: 0
22:09:01 - /root/bin/ffmpeg  -i /var/www/html/clients/5956/audio/6A62BBAE-B4DC-298F-B208-EBBAB6FA9517.wav -f mp3 -ar 44100 -ab 320 -ac 2 -y /var/www/html/clients/5956/audio/6A62BBAE-B4DC-298F-B208-EBBAB6FA9517.mp3
ffmpeg version N-109053-g9b13078c6a Copyright (c) 2000-2022 the FFmpeg developers
  built with gcc 5.4.0 (GCC)
  configuration: --prefix=/root/ffmpeg_build --pkg-config-flags=--static --extra-cflags=-I/root/ffmpeg_build/include --extra-ldflags=-L/root/ffmpeg_build/lib --extra-libs=-lpthread --extra-libs=-lm --bindir=/root/bin --enable-gpl --enable-libfdk_aac --enable-libfreetype --enable-libmp3lame --enable-libopus --enable-libvpx --enable-libx264 --enable-openssl --enable-libx265 --enable-nonfree --enable-libvidstab
  libavutil      57. 42.100 / 57. 42.100
  libavcodec     59. 52.101 / 59. 52.101
  libavformat    59. 34.101 / 59. 34.101
  libavdevice    59.  8.101 / 59.  8.101
  libavfilter     8. 50.100 /  8. 50.100
  libswscale      6.  8.112 /  6.  8.112
  libswresample   4.  9.100 /  4.  9.100
  libpostproc    56.  7.100 / 56.  7.100
Guessed Channel Layout for Input Stream #0.0 : stereo
Input #0, wav, from '/var/www/html/clients/5956/audio/6A62BBAE-B4DC-298F-B208-EBBAB6FA9517.wav':
  Duration: 00:00:35.21, bitrate: 1411 kb/s
  Stream #0:0: Audio: pcm_s16le ([1][0][0][0] / 0x0001), 44100 Hz, 2 channels, s16, 1411 kb/s
Stream mapping:
  Stream #0:0 -> #0:0 (pcm_s16le (native) -> mp3 (libmp3lame))
Press [q] to stop, [?] for help
[libmp3lame @ 0x2f00480] Bitrate 320 is extremely low, maybe you mean 320k
The bitrate parameter is set too low. It takes bits/s as argument, not kbits/s
Output #0, mp3, to '/var/www/html/clients/5956/audio/6A62BBAE-B4DC-298F-B208-EBBAB6FA9517.mp3':
  Metadata:
    TSSE            : Lavf59.34.101
  Stream #0:0: Audio: mp3, 44100 Hz, stereo, s16p, 0 kb/s
    Metadata:
      encoder         : Lavc59.52.101 libmp3lame
size=       0kB time=-577014:32:22.77 bitrate=  -0.0kbits/s speed=N/A    
size=      97kB time=00:00:06.19 bitrate= 128.3kbits/s speed=12.4x    
size=     199kB time=00:00:12.72 bitrate= 128.1kbits/s speed=12.7x    
size=     256kB time=00:00:19.80 bitrate= 105.9kbits/s speed=13.2x    
size=     256kB time=00:00:26.67 bitrate=  78.6kbits/s speed=13.3x    
size=     512kB time=00:00:33.72 bitrate= 124.4kbits/s speed=13.5x    
size=     551kB time=00:00:35.18 bitrate= 128.2kbits/s speed=13.5x    
video:0kB audio:551kB subtitle:0kB other streams:0kB global headers:0kB muxing overhead: 0.044872%
22:09:03 - /var/app/video_pre_processor/assets/vidbot/_files/audio/Orchestra-3_30.mp3 PlayTime:751.67
22:09:03 - Using Orchestra-3_30.mp3 - /var/app/video_pre_processor/assets/vidbot/_files/audio/Orchestra-3_30.mp3
22:09:03 - BG MUSIC FILE /var/app/video_pre_processor/assets/vidbot/_files/audio/Orchestra-3_30.mp3 

22:09:03 - BG AUDIO CLIENT OVELAY VALUE : 2 

22:09:03 - /var/www/html/clients/5956/audio/6A62BBAE-B4DC-298F-B208-EBBAB6FA9517.wav PlayTime:35.21
22:09:03 - VParent - VOLEN:37.21 | /var/www/html/clients/5956/audio/6A62BBAE-B4DC-298F-B208-EBBAB6FA9517.mp3 | /var/app/video_pre_processor/assets/vidbot/_files/audio/Orchestra-3_30.mp3 | /var/www/html/clients/5956/audio/6A62BBAE-B4DC-298F-B208-EBBAB6FA9517.wav
22:09:03 - AUDIO PROCESS RETURN VALUE: - 1
22:09:03 - update message_remote_queue set video_process_start = '2024-06-24 22:09:03' where queue_id = 306806
22:09:03 - CLIENT INFO DATA 
{"client_id":"5956","client_fk":"504C4200-3C75-E438-B3B0-B44F2CED3A34","client_acc_id":"3","client_name":"Toyota Direct","client_desc":"Toyota Direct","client_color":"00DBDB","client_player_color":"","client_textcolor":"","client_tts_text":"","client_tts_options":"","client_inactive":"0","client_createdate":"2016-08-05 14:02:46","client_enddate":"","client_update":"2023-12-07 08:27:30","client_email_forward":"","client_dealer_id":"2182142","client_franchise_number":"","client_salesperson_name":"Internet Sales","client_address":"4248 Morse Road","client_city":"Columbus","client_state":"OH","client_zip":"43230","client_phone":"888-279-1570","client_url":"http:\/\/www.toyotadirect.com","client_fb_id":"0","client_km":"0","client_special_price":"0","client_demo":"0","client_utube_flag":"1","client_cvo":"0","client_tts":"0","client_live_uv":"1","client_live_overlay":"2","client_av":"0","client_gv":"0","client_af":"0","client_video_email":"0","client_carfax":"0","client_intro":"0","client_outro":"1","client_slider":"0","client_music_id":"10","client_ei":"0","client_tts_vm":"2","client_hvo":"1","client_mobile":"0","client_portal":"0","client_instavid":"0","client_new_stock_video":"0","client_vidmagnet":"0","client_auto_play":"1","client_cpo":"1","client_vid_stab":"0","client_vp":"0","client_xl":"1","client_carstory":"0","client_360_player":"0","client_ece":"0","client_capture_video":"0","client_new_cvo":"0","client_pip":"1","client_account_id":"1","client_crm_email":"","client_crm_dealer_id":"","client_crm_dealer_key":"","client_archive":"0","client_damage_photo":"0","client_package":"5","client_video_size":"HDXLARGE","client_video_style":"FULL","client_lat_lng":"","client_comments":"","ftp_extract_images":"0","OUTRO_AUDIO":"YES","VIDEO_SIZE":"HD-XLARGE","SHOW_CARSTORY":"0"}
22:09:03 - Map Exists: /var/www/html/clients/5956/library/map.jpg
22:09:03 - /var/www/html/clients/5956/library/outro.mp4 PlayTime:5.69
22:09:03 - /var/www/html/clients/5956/library/960_outro.mp4 PlayTime:5.69
22:09:04 - Checking CUSTOM_INTRO
22:09:04 - Checking CUSTOM_OUTRO
22:09:04 - ================CREATE VIDEO START =========== 

22:09:04 - ================VIDEO JSON GEN START ==============
22:09:04 - Video Size 540
22:09:04 - ===========Video Theme font ================Dinot
22:09:04 - ==========Video fk : ==============6A62BBAE-B4DC-298F-B208-EBBAB6FA9517
22:09:04 - ==============AUDIO VIDEO CONFIG : =========={"BG_MUSIC":"Orchestra-3_30","THEME_BG_COLOR":"ffffff","THEME_ACCENTS_COLOR":"047ec1","THEME_FONT_COLOR":"000000","THEME_FONT":"Dinot","THEME_STYLE":"Ren","BG_VOL_LEVEL":"0.25","AUDIO_VO":"VO","VIDEO_SIZE":"HD-XLARGE","CUSTOM_INTRO":"","CUSTOM_OUTRO":"","THEME_KEY":"3_0_Auto_Default_0_ALL","THEME_RANK":"2","THEME_CONFIG":"RESELLER_CONFIG","DISABLE_PRICE":"YES","DISPLAY_INFO":"NO","DISPLAY_MAP":"NO","DISPLAY_MILEAGE":"NO","DISPLAY_OPTIONS":"NO","DISPLAY_PRICE":"NO","OUTRO_AUDIO":"YES","OLD_BG_STYLE":"0"}
22:09:04 - CLIENT FKEY :  504C4200-3C75-E438-B3B0-B44F2CED3A34  VIDEO FKEY :  6A62BBAE-B4DC-298F-B208-EBBAB6FA9517  VEHICLE FKEY :   
22:09:04 - INFO:: Video Type:SS Video Size:540 
22:09:04 - Return from CheckProfileVal function::0 - DISPLAY_MILEAGE - NO
22:09:04 - Return from CheckProfileVal function::1 - DISPLAY_MILEAGE - NO
22:09:04 - ==================ClipsGen START  =====================

22:09:04 - Return from CheckProfileVal function::0 - AUDIO_VO - NO_VO
22:09:04 - Return from CheckProfileVal function::0 - AUDIO_VO - NO_VO
22:09:04 - Return from CheckProfileVal function::0 - AUDIO_VO - LIVE_VO
22:09:04 - Return from CheckProfileVal function::0 - AUDIO_VO - LIVE_VO
22:09:04 - Return from CheckProfileVal function::0 - DISPLAY_OPTIONS - NO
22:09:04 - Return from CheckProfileVal function::1 - DISPLAY_OPTIONS - NO
22:09:04 - Return from CheckProfileVal function::0 - DISPLAY_PRICE - NO
22:09:04 - Return from CheckProfileVal function::1 - DISPLAY_PRICE - NO
22:09:04 - Return from CheckProfileVal function::0 - DISPLAY_MILEAGE - NO
22:09:04 - Return from CheckProfileVal function::1 - DISPLAY_MILEAGE - NO
22:09:04 - Return from CheckProfileVal function::0 - DISPLAY_INFO - NO
22:09:04 - Return from CheckProfileVal function::1 - DISPLAY_INFO - NO
22:09:04 - Return from CheckProfileVal function::0 - DISPLAY_TITLE_WSNAME - NO
22:09:04 - Return from CheckProfileVal function::0 - DISPLAY_TITLE_WSNAME - NO
22:09:04 - Return from CheckProfileVal function::0 - DISPLAY_ALL_OVERLAYS - NO
22:09:04 - Return from CheckProfileVal function::0 - DISPLAY_ALL_OVERLAYS - NO
22:09:04 - Return from CheckProfileVal function::0 - DISPLAY_MAP - NO
22:09:04 - Return from CheckProfileVal function::1 - DISPLAY_MAP - NO
22:09:04 - =========THEME STYLE-FONT :Ren - Din  ============
22:09:04 - /var/app/video_pre_processor/assets/vidbot/_files/audio/Orchestra-3_30.mp3 PlayTime:751.67
22:09:04 - Return from CheckProfileVal function::0 - BG_MUSIC_OVER_ALL_CLIPS - YES
22:09:04 - Return from CheckProfileVal function::0 - BG_MUSIC_OVER_ALL_CLIPS - YES
22:09:04 - AUDIO TIMER: 
{"INTRO":0,"YEAR":2.35,"MODEL":4.15,"HIGH":5.140000000000001,"MILE":10.73,"ALL_OPTIONS":{"* General Options Intro":14.13,"Power Liftgate":16.48,"Brake Assist":17.68,"Remote Keyless Entry":18.8,"Fog Lights":20.5,"Speed Control":21.44,"4-wheel Disc Brakes":22.69,"Electronic Stability Control":24.26,"Traction Control":26.14,"Rear Window Defroster":27.45,"Navigation System":28.97},"OPTIONS":16.130000000000003,"OPTIONS_AUD_LENGTH":16.43,"ENDFILE":30.56}
22:09:04 - ===================ClipsGen END  ======================== 

22:09:04 - INFO:: VIDEO JSON : "6A62BBAE-B4DC-298F-B208-EBBAB6FA9517.json"
22:09:04 - node /var/app/Vidbot-V2/dist/vidbot.js --input /var/www/html/clients/5956/video/6A62BBAE-B4DC-298F-B208-EBBAB6FA9517.json --log debug > /var/www/html/clients/5956/video/6A62BBAE-B4DC-298F-B208-EBBAB6FA9517.log