22:01:13 - Fetching  Video Jobs Mod Val : 5 Mod Limit : 16 Queue ID : 0 

22:01:13 - ========select * from message_remote_queue, hvo_data where queue_id%16 = 5 and image = 1 and video = 0 and error = 0 and hvo_queue_id = queue_id   order by high_priority_row desc, queue_id asc limit 1==================count =1
22:01:13 - Processing Auto VideoFKEY:10F210AA-5440-36BE-0E20-242344E3C18B - QueueID:306789 
22:01:13 - CLIENT INFO  CLIENT_FK  : 2C6A657A-A657-1B2D-C1E3-4FE19E2CEF9C ,CLIENT_INFO :{"client_id":"3493","client_fk":"2C6A657A-A657-1B2D-C1E3-4FE19E2CEF9C","client_acc_id":"3","client_name":"JS Test Dealer","client_desc":"JS Test Dealer","client_color":"","client_player_color":"","client_textcolor":"","client_tts_text":"","client_tts_options":"","client_inactive":"0","client_createdate":"2014-09-05 13:10:34","client_enddate":"","client_update":"2020-02-20 16:03:16","client_email_forward":"","client_dealer_id":"2050675","client_franchise_number":"","client_salesperson_name":"","client_address":"","client_city":"","client_state":"","client_zip":"","client_phone":"","client_url":"","client_fb_id":"","client_km":"0","client_special_price":"0","client_demo":"1","client_utube_flag":"0","client_cvo":"0","client_tts":"1","client_live_uv":"1","client_live_overlay":"0","client_av":"1","client_gv":"0","client_af":"0","client_video_email":"0","client_carfax":"1","client_intro":"0","client_outro":"0","client_slider":"1","client_music_id":"20","client_ei":"0","client_tts_vm":"3","client_hvo":"1","client_mobile":"1","client_portal":"0","client_instavid":"0","client_new_stock_video":"0","client_vidmagnet":"0","client_auto_play":"1","client_cpo":"1","client_vid_stab":"0","client_vp":"0","client_xl":"0","client_carstory":"0","client_360_player":"0","client_ece":"0","client_capture_video":"0","client_new_cvo":"0","client_pip":"1","client_account_id":"1","client_crm_email":"","client_crm_dealer_id":"","client_crm_dealer_key":"","client_archive":"0","client_damage_photo":"0","client_package":"6","client_video_size":"HDLARGE","client_video_style":"FULL","client_lat_lng":"","client_comments":"","SHOW_CARSTORY":"0"}
22:01:13 - Rest Call: /client/videoDetails/2C6A657A-A657-1B2D-C1E3-4FE19E2CEF9C?video_key=10F210AA-5440-36BE-0E20-242344E3C18B
22:01:14 - Curl Response - {"video_id":"48625956","video_fk":"10F210AA-5440-36BE-0E20-242344E3C18B","vehicle_id":"42910973","video_client_id":"3493","video_script":"PRICE DROP FROM $20,995. CARFAX 1-Owner. Fourth Passenger Door, Flex Fuel, CRUISE CONTROL , RADIO: AM\/FM W\/SINGLE CD & REAR VIEW.OPTION PACKAGESRADIO: AM\/FM W\/SINGLE CD & REAR VIEW CAMERA 4.2 LCD multi-function display w\/steering wheel controls, audio input jack and 4 front speakers, In-Cluster Message Center, Compass Display, 4-Spoke Leather-Wrapped Steering Wheel, satin chrome shells, SYNC Voice Activated Communication & Entertainment, 911 Assist, VHR, SYNC services, AppLink, Bluetooth\u00ae, steering wheel controls, USB port and auxiliary input jack, CRUISE CONTROL In-Cluster Message Center, 4-Spoke Steering Wheel, satin chrome shells.EXPERTS ARE SAYINGEdmunds.coms review says In addition to economy, utility and practicality, this Euro-derived van features a relatively stylish design thats a cut above some of its boxier competitors. And the cabin provides a comfortable environment, with decently supportive seats and a modern, well-organized dashboard..Plus license and title, and $250 title and registration processing fee. Price does not include a charge for 0.40% Oregon Corporate Activity Tax. A 0.5% state sales tax will be added to new vehicle sales Not all sales at MSRP. Pricing analysis performed on 6\/24\/2024.","video_tts_script":"PRICE DROP FROM $20,995. CARFAX 1-Owner. Fourth Passenger Door, Flex Fuel, CRUISE CONTROL , RADIO: AM\/FM W\/SINGLE CD & REAR VIEW.OPTION PACKAGESRADIO: AM\/FM W\/SINGLE CD & REAR VIEW CAMERA 4.2 LCD multi-function display w\/steering wheel controls, audio input jack and 4 front speakers, In-Cluster Message Center, Compass Display, 4-Spoke Leather-Wrapped Steering Wheel, satin chrome shells, SYNC Voice Activated Communication & Entertainment, 911 Assist, VHR, SYNC services, AppLink, Bluetooth\u00ae, steering wheel controls, USB port and auxiliary input jack, CRUISE CONTROL In-Cluster Message Center, 4-Spoke Steering Wheel, satin chrome shells.EXPERTS ARE SAYINGEdmunds.coms review says In addition to economy, utility and practicality, this Euro-derived van features a relatively stylish design thats a cut above some of its boxier competitors. And the cabin provides a comfortable environment, with decently supportive seats and a modern, well-organized dashboard..Plus license and title, and $250 title and registration processing fee. Price does not include a charge for 0.40% Oregon Corporate Activity Tax. A 0.5% state sales tax will be added to new vehicle sales Not all sales at MSRP. Pricing analysis performed on 6\/24\/2024.","video_flv":"","video_create_time":"2024-05-01 13:49:41","video_update_time":"2024-06-24 21:50:19","audio_length":"0","video_options":"Driver Air Bag,Passenger Air Bag,Front Side Air Bag,Front Head Air Bag,A\/C,AM\/FM Stereo,CD Player,ABS,4-Wheel Disc Brakes,Cruise Control,Third Passenger Door,Fourth Passenger Door,Front Wheel Drive,4 Cylinder Engine,Keyless Entry,Power Door Locks,Vinyl Seats,Bucket Seats,Power Steering,Adjustable Steering Wheel,Tires - Front Performance,Tires - Rear Performance,Conventional Spare Tire,Traction Control,6-Speed A\/T,Power Windows,Intermittent Wipers,MP3 Player,Variable Speed Intermittent Wipers,Steering Wheel Audio Controls,Engine Immobilizer,Leather Steering Wheel,Transmission w\/Dual Shift Mode,Tire Pressure Monitor,Wheel Covers,Steel Wheels,Bluetooth,Telematics,Flex Fuel Capability,Back-Up Camera,Stability Control,Brake Assist,Auxiliary Audio Input,Smart Device Integration","video_custom_flag":"0","video_title":"2018 FORD TRANSIT CONNECT West Chester, PA","video_local_title":"2018 FORD TRANSIT CONNECT West Chester, PA","video_frames":"20","video_image_url":"\/avavids\/1\/clients\/3493\/images\/10F210AA-5440-36BE-0E20-242344E3C18B_","video_pin_id":"0","video_tts_flag":"1","video_hvo_flag":"0","video_share":"1","video_default_flag":"1","video_imgsrc_urls":"https:\/\/content.homenetiol.com\/24b4dd1eaeb54a738576cef4a85cf648.jpg,https:\/\/content.homenetiol.com\/db3ffea43eb7402998540dd731ef2511.jpg,https:\/\/content.homenetiol.com\/61118f106ff74b5b9f5db9701c1eefb9.jpg,https:\/\/content.homenetiol.com\/d32527807da94e4bb8f5fdb2ecda1628.jpg,https:\/\/content.homenetiol.com\/6c0a56abdefb4cb18548bd128be92181.jpg,https:\/\/content.homenetiol.com\/6826145babe346cbb88ba1e48cd2831d.jpg,https:\/\/content.homenetiol.com\/05762065f855457186d06d1ddfbcdd88.jpg,https:\/\/content.homenetiol.com\/387aad28c15d44859e5d1c235e675c76.jpg,https:\/\/content.homenetiol.com\/67a333a6f81343e58d3dd45797b42a3e.jpg,https:\/\/content.homenetiol.com\/86c03a13971443a5a2145b9da79c0de3.jpg,https:\/\/content.homenetiol.com\/03763c5f91d54dcb8151c2bc9552d258.jpg,https:\/\/content.homenetiol.com\/98df917dbdc34dea8b86793feecf6767.jpg,https:\/\/content.homenetiol.com\/6d4b77bac21a4ceea2ef48b9422492c4.jpg,https:\/\/content.homenetiol.com\/f29f1b29ab134bd7ba54e4f2521f7bfe.jpg,https:\/\/content.homenetiol.com\/899e85c6928d4b78b67a5e76cf4af018.jpg,https:\/\/content.homenetiol.com\/2d29b770d02a4113b7e5c454ff0158a3.jpg,https:\/\/content.homenetiol.com\/a986e4a5a40d4ab3bc1cc4c4d338a36f.jpg,https:\/\/content.homenetiol.com\/706a859f00b6478b9e16963e8257e81e.jpg,https:\/\/content.homenetiol.com\/3cd434dd0d1d46a18689cc070f9dc50d.jpg,https:\/\/content.homenetiol.com\/5b86820f334149d3bad954fcd95add49.jpg,https:\/\/content.homenetiol.com\/1aaa4c37875049babeea8e69a99e94ca.jpg,https:\/\/content.homenetiol.com\/e237e5fb8157434eaa213bb695766333.jpg,https:\/\/content.homenetiol.com\/ddde728d24bf47989de70069092a4ba3.jpg,https:\/\/content.homenetiol.com\/a564f54924774ad38e8bf0709b75152f.jpg,https:\/\/content.homenetiol.com\/b2d7705335064e3484956e2e98dae80a.jpg,https:\/\/content.homenetiol.com\/f1c833a42eae4207807bd5f4207f7cc8.jpg,https:\/\/content.homenetiol.com\/80707b6e482f45c3b6c8ecd555047b54.jpg,https:\/\/content.homenetiol.com\/56fc3693023645ce9961fb3955770d4b.jpg,https:\/\/content.homenetiol.com\/daae7f6fbac94ae2acd6462edd6cd6e6.jpg,https:\/\/content.homenetiol.com\/97a6fa515bb14a65a3933510142c6a3b.jpg","video_thumbnail_url":"","video_rendering_flag":"0","video_error_rendering":"","video_view_cnt":"0","video_delete_flag":"0","video_delete_time":"","video_batch_proc":"0","video_meta_data":"","video_custom_default":"0","video_external_flv":"https:\/\/gcsimages.s3.us-west-001.backblazeb2.com\/clients\/3493\/video\/10F210AA-5440-36BE-0E20-242344E3C18B.mp4","video_external_wflv":"","video_external_iflv":"","video_custom_uploaded":"0","vehicle_client_id":"3493","vehicle_fkey":"7A5F5A59-EE55-491D-6678-B38BDCA8C17A","vehicle_uid":"1542227154","vehicle_vin":"NM0LS6E77J1349830","vehicle_stock":"V349830","vehicle_year":"2018","vehicle_make":"Ford","vehicle_model":"Transit Connect","vehicle_trim":"XL","vehicle_price":"17500","vehicle_mileage":"122688","vehicle_int_color":"Black","vehicle_ext_color":"Frozen White","vehicle_body_type":"Mini-van, Cargo","vehicle_listing_type":"Used","vehicle_citympg":"","vehicle_hwympg":"","vehicle_combmpg":"","vehicle_cylinders":"4","vehicle_engine_size":"2.5","vehicle_trans":"Automatic","vehicle_drivetrain":"FWD","vehicle_passengers":"0","vehicle_doors":"4","vehicle_certified":"0","vehicle_special":"0","vehicle_options":"Driver Air Bag,Passenger Air Bag,Front Side Air Bag,Front Head Air Bag,A\/C,AM\/FM Stereo,CD Player,ABS,4-Wheel Disc Brakes,Cruise Control,Third Passenger Door,Fourth Passenger Door,Front Wheel Drive,4 Cylinder Engine,Keyless Entry,Power Door Locks,Vinyl Seats,Bucket Seats,Power Steering,Adjustable Steering Wheel,Tires - Front Performance,Tires - Rear Performance,Conventional Spare Tire,Traction Control,6-Speed A\/T,Power Windows,Intermittent Wipers,MP3 Player,Variable Speed Intermittent Wipers,Steering Wheel Audio Controls,Engine Immobilizer,Leather Steering Wheel,Transmission w\/Dual Shift Mode,Tire Pressure Monitor,Wheel Covers,Steel Wheels,Bluetooth,Telematics,Flex Fuel Capability,Back-Up Camera,Stability Control,Brake Assist,Auxiliary Audio Input,Smart Device Integration","vehicle_desc":"2018 FORD TRANSIT CONNECT West Chester, PAStock# V349830610-555-5555For more information on this vehicle and our full inventory, call 610-555-5555.JS Test Dealer102 Xtreme LaneWest Chester, PA 19460PRICE DROP FROM $20,995. CARFAX 1-Owner. Fourth Passenger Door, Flex Fuel, CRUISE CONTROL , RADIO: AM\/FM W\/SINGLE CD & REAR VIEW.OPTION PACKAGESRADIO: AM\/FM W\/SINGLE CD & REAR VIEW CAMERA 4.2 LCD multi-function display w\/steering wheel controls, audio input jack and 4 front speakers, In-Cluster Message Center, Compass Display, 4-Spoke Leather-Wrapped Steering Wheel, satin chrome shells, SYNC Voice Activated Communication & Entertainment, 911 Assist, VHR, SYNC services, AppLink, Bluetooth\u00ae, steering wheel controls, USB port and auxiliary input jack, CRUISE CONTROL In-Cluster Message Center, 4-Spoke Steering Wheel, satin chrome shells.EXPERTS ARE SAYINGEdmunds.coms review says In addition to economy, utility and practicality, this Euro-derived van features a relatively stylish design thats a cut above some of its boxier competitors. And the cabin provides a comfortable environment, with decently supportive seats and a modern, well-organized dashboard..Plus license and title, and $250 title and registration processing fee. Price does not include a charge for 0.40% Oregon Corporate Activity Tax. A 0.5% state sales tax will be added to new vehicle sales Not all sales at MSRP. Pricing analysis performed on 6\/24\/2024.","vehicle_chrome_style_id":"","vehicle_model_num":"","vehicle_stock_video":"0","vehicle_img_cnt":"30","veh_more_info":"","vehicle_create_date":"2024-05-01 13:49:41","vehicle_update_date":"2024-06-24 21:49:32","vehicle_md5":"52ccd028f6e83c620964f9357db55c10","vehicle_status":"U","vehicle_add":"0","vehicle_delete_flag":"0","vehicle_delete_time":""}
22:01:14 - Rest Call: /client/carfax/2C6A657A-A657-1B2D-C1E3-4FE19E2CEF9C?video_key=10F210AA-5440-36BE-0E20-242344E3C18B
22:01:14 - Curl Response - {"CARFAX_EXISTS":"Yes\r","CARFAX_ONE_OWNER":"1"}
22:01:14 - Rest Call: /client/getAudioVideoConfig/2C6A657A-A657-1B2D-C1E3-4FE19E2CEF9C?listing_type=Used&video_type=Auto&certified=0&vehicle_make=Ford
22:01:14 - Curl Response - {"BG_MUSIC":"No Music","THEME_BG_COLOR":"ffffff","THEME_ACCENTS_COLOR":"047ec1","THEME_FONT_COLOR":"000000","THEME_FONT":"Din","THEME_STYLE":"Ren","BG_VOL_LEVEL":"0.25","AUDIO_VO":"VO","VIDEO_SIZE":"VIDEO_LARGE","CUSTOM_INTRO":"","CUSTOM_OUTRO":"","THEME_KEY":"3_0_Auto_Default_0_ALL","THEME_RANK":"2","THEME_CONFIG":"RESELLER_CONFIG","DISABLE_PRICE":"YES","DISPLAY_INFO":"NO","DISPLAY_MAP":"NO","DISPLAY_MILEAGE":"NO","DISPLAY_OPTIONS":"NO","DISPLAY_PRICE":"NO","OLD_BG_STYLE":"0"}
22:01:14 - Return from CheckProfileVal function::1 - DISABLE_PRICE - YES
22:01:14 - Return from CheckProfileVal function::0 - DISABLE_MILEAGE - YES
22:01:14 - Return from CheckProfileVal function::0 - DISABLE_CARSTORY - YES
22:01:14 - Config Information for 10F210AA-5440-36BE-0E20-242344E3C18B - Width:640 - CPO:1/0 - CF:1 - CS:0  - Intro:0 - Outro:0 - Ovleray:0 -THEME:3_0_Auto_Default_0_ALL
22:01:14 - https://content.homenetiol.com/24b4dd1eaeb54a738576cef4a85cf648.jpg /var/www/html/clients/3493/images/10F210AA-5440-36BE-0E20-242344E3C18B_1.jpg
22:01:14 - https://content.homenetiol.com/db3ffea43eb7402998540dd731ef2511.jpg /var/www/html/clients/3493/images/10F210AA-5440-36BE-0E20-242344E3C18B_2.jpg
22:01:14 - https://content.homenetiol.com/61118f106ff74b5b9f5db9701c1eefb9.jpg /var/www/html/clients/3493/images/10F210AA-5440-36BE-0E20-242344E3C18B_3.jpg
22:01:14 - https://content.homenetiol.com/d32527807da94e4bb8f5fdb2ecda1628.jpg /var/www/html/clients/3493/images/10F210AA-5440-36BE-0E20-242344E3C18B_4.jpg
22:01:14 - https://content.homenetiol.com/6c0a56abdefb4cb18548bd128be92181.jpg /var/www/html/clients/3493/images/10F210AA-5440-36BE-0E20-242344E3C18B_5.jpg
22:01:14 - https://content.homenetiol.com/6826145babe346cbb88ba1e48cd2831d.jpg /var/www/html/clients/3493/images/10F210AA-5440-36BE-0E20-242344E3C18B_6.jpg
22:01:14 - https://content.homenetiol.com/05762065f855457186d06d1ddfbcdd88.jpg /var/www/html/clients/3493/images/10F210AA-5440-36BE-0E20-242344E3C18B_7.jpg
22:01:14 - https://content.homenetiol.com/387aad28c15d44859e5d1c235e675c76.jpg /var/www/html/clients/3493/images/10F210AA-5440-36BE-0E20-242344E3C18B_8.jpg
22:01:14 - https://content.homenetiol.com/67a333a6f81343e58d3dd45797b42a3e.jpg /var/www/html/clients/3493/images/10F210AA-5440-36BE-0E20-242344E3C18B_9.jpg
22:01:14 - https://content.homenetiol.com/86c03a13971443a5a2145b9da79c0de3.jpg /var/www/html/clients/3493/images/10F210AA-5440-36BE-0E20-242344E3C18B_10.jpg
22:01:14 - https://content.homenetiol.com/03763c5f91d54dcb8151c2bc9552d258.jpg /var/www/html/clients/3493/images/10F210AA-5440-36BE-0E20-242344E3C18B_11.jpg
22:01:14 - https://content.homenetiol.com/98df917dbdc34dea8b86793feecf6767.jpg /var/www/html/clients/3493/images/10F210AA-5440-36BE-0E20-242344E3C18B_12.jpg
22:01:14 - https://content.homenetiol.com/6d4b77bac21a4ceea2ef48b9422492c4.jpg /var/www/html/clients/3493/images/10F210AA-5440-36BE-0E20-242344E3C18B_13.jpg
22:01:14 - https://content.homenetiol.com/f29f1b29ab134bd7ba54e4f2521f7bfe.jpg /var/www/html/clients/3493/images/10F210AA-5440-36BE-0E20-242344E3C18B_14.jpg
22:01:14 - https://content.homenetiol.com/899e85c6928d4b78b67a5e76cf4af018.jpg /var/www/html/clients/3493/images/10F210AA-5440-36BE-0E20-242344E3C18B_15.jpg
22:01:14 - https://content.homenetiol.com/2d29b770d02a4113b7e5c454ff0158a3.jpg /var/www/html/clients/3493/images/10F210AA-5440-36BE-0E20-242344E3C18B_16.jpg
22:01:14 - https://content.homenetiol.com/a986e4a5a40d4ab3bc1cc4c4d338a36f.jpg /var/www/html/clients/3493/images/10F210AA-5440-36BE-0E20-242344E3C18B_17.jpg
22:01:14 - https://content.homenetiol.com/706a859f00b6478b9e16963e8257e81e.jpg /var/www/html/clients/3493/images/10F210AA-5440-36BE-0E20-242344E3C18B_18.jpg
22:01:14 - https://content.homenetiol.com/3cd434dd0d1d46a18689cc070f9dc50d.jpg /var/www/html/clients/3493/images/10F210AA-5440-36BE-0E20-242344E3C18B_19.jpg
22:01:14 - https://content.homenetiol.com/5b86820f334149d3bad954fcd95add49.jpg /var/www/html/clients/3493/images/10F210AA-5440-36BE-0E20-242344E3C18B_20.jpg
22:01:14 - Image Count 20
22:01:14 - Setting Female English VO Constants | 0 | 0
22:01:14 - ====HVO Value:1, Audio Value:0===
22:01:14 - Return from CheckProfileVal function::0 - AUDIO_INTRO - 
22:01:14 - Return from CheckProfileVal function::0 - AUDIO_OUTRO - 
22:01:14 - ================Process HVO=========== 
 1
22:01:14 - ================CLIENT SELECT TTS VM VALUE=========== 
 3
22:01:14 - 1 - 1 - /var/app/video_pre_processor/assets/hvo/
22:01:14 - Setting Female English VO Constants | 0 | 1
22:01:14 - HVO Soap Call Method - AudoListWMIE 

22:01:14 - Getting Text For Audio Files
22:01:14 - HVO Soap Call Method - AudoListTWMIE 

22:01:14 - Getting Text For Audio Files emotionalFile 18
22:01:14 - HVO Soap Call Method - GetTTScripts 

22:01:14 - Getting Text For Audio Files introEmotionalFile 26
22:01:14 - HVO Soap Call Method - GetTTScripts 

22:01:14 - Getting Text For Audio Files scriptFile 24
22:01:14 - HVO Soap Call Method - GetTTScripts 

22:01:14 - ================TTS VM VALUE=========== 
 1
22:01:14 - ================GetVOFiles=========== 
 {"OptionFiles":[{"option_str":"* General Options Intro","option_file":"http:\/\/hvo.flickfusion.net\/audio\/options\/options_audio_file_55.mp3","option_saftey":1},{"option_str":"Traction Control","option_file":"http:\/\/hvo.flickfusion.net\/audio\/options\/options_audio_file_18.mp3","option_saftey":2},{"option_str":"Steering wheel audio controls","option_file":"http:\/\/hvo.flickfusion.net\/audio\/options\/options_audio_file_296.mp3","option_saftey":1},{"option_str":"ANTI-LOCK BRAKING SYSTEM","option_file":"http:\/\/hvo.flickfusion.net\/audio\/options\/options_audio_file_70.mp3","option_saftey":1},{"option_str":"Stability Control","option_file":"http:\/\/hvo.flickfusion.net\/audio\/options\/options_audio_file_17.mp3","option_saftey":2},{"option_str":"Back-Up Camera","option_file":"http:\/\/hvo.flickfusion.net\/audio\/options\/options_audio_file_337.mp3","option_saftey":1},{"option_str":"Keyless Entry","option_file":"http:\/\/hvo.flickfusion.net\/audio\/options\/options_audio_file_202.mp3","option_saftey":1},{"option_str":"Bluetooth","option_file":"http:\/\/hvo.flickfusion.net\/audio\/options\/options_audio_file_846.mp3","option_saftey":1},{"option_str":"Leather Wrapped Steering Wheel","option_file":"http:\/\/hvo.flickfusion.net\/audio\/options\/options_audio_file_207.mp3","option_saftey":1},{"option_str":"Power Steering","option_file":"http:\/\/hvo.flickfusion.net\/audio\/options\/options_audio_file_244.mp3","option_saftey":1},{"option_str":"Driver Air Bag","option_file":"http:\/\/hvo.flickfusion.net\/audio\/options\/options_audio_file_148.mp3","option_saftey":1},{"option_str":"Adjustable Steering Wheel","option_file":"http:\/\/hvo.flickfusion.net\/audio\/options\/options_audio_file_74.mp3","option_saftey":1},{"option_str":"4-Wheel Disc Brakes","option_file":"http:\/\/hvo.flickfusion.net\/audio\/options\/options_audio_file_63.mp3","option_saftey":1},{"option_str":"Cruise Control","option_file":"http:\/\/hvo.flickfusion.net\/audio\/options\/options_audio_file_134.mp3","option_saftey":1},{"option_str":"FRONT WHEEL DRIVE","option_file":"http:\/\/hvo.flickfusion.net\/audio\/options\/options_audio_file_170.mp3","option_saftey":1},{"option_str":"AM\/FM STEREO RADIO","option_file":"http:\/\/hvo.flickfusion.net\/audio\/options\/options_audio_file_69.mp3","option_saftey":1},{"option_str":"CD Player","option_file":"http:\/\/hvo.flickfusion.net\/audio\/options\/options_audio_file_111.mp3","option_saftey":1},{"option_str":"Passenger Air Bag","option_file":"http:\/\/hvo.flickfusion.net\/audio\/options\/options_audio_file_228.mp3","option_saftey":1},{"option_str":"MP3 Player","option_file":"http:\/\/hvo.flickfusion.net\/audio\/options\/options_audio_file_211.mp3","option_saftey":1},{"option_str":"Power Windows","option_file":"http:\/\/hvo.flickfusion.net\/audio\/options\/options_audio_file_2.mp3","option_saftey":1},{"option_str":"Power Door Locks","option_file":"http:\/\/hvo.flickfusion.net\/audio\/options\/options_audio_file_234.mp3","option_saftey":1},{"option_str":"Bucket Seats","option_file":"http:\/\/hvo.flickfusion.net\/audio\/options\/options_audio_file_107.mp3","option_saftey":1},{"option_str":"Fourth Passenger Door","option_file":"http:\/\/hvo.flickfusion.net\/audio\/options\/options_audio_file_174.mp3","option_saftey":1},{"option_str":"A\/C","option_file":"http:\/\/hvo.flickfusion.net\/audio\/options\/options_audio_file_67.mp3","option_saftey":1},{"option_str":"Brake Assist","option_file":"http:\/\/hvo.flickfusion.net\/audio\/options\/options_audio_file_104.mp3","option_saftey":1},{"option_str":"Auxiliary Audio Input","option_file":"http:\/\/hvo.flickfusion.net\/audio\/options\/options_audio_file_95.mp3","option_saftey":1},{"option_str":"Third Passenger Door","option_file":"http:\/\/hvo.flickfusion.net\/audio\/options\/options_audio_file_304.mp3","option_saftey":1},{"option_str":"Engine Immobilizer","option_file":"http:\/\/hvo.flickfusion.net\/audio\/options\/options_audio_file_33.mp3","option_saftey":2},{"option_str":"Steel Wheels","option_file":"http:\/\/hvo.flickfusion.net\/audio\/options\/options_audio_file_289.mp3","option_saftey":1},{"option_str":"Telematics","option_file":"http:\/\/hvo.flickfusion.net\/audio\/options\/options_audio_file_303.mp3","option_saftey":1},{"option_str":"Tires - Rear Performance","option_file":"http:\/\/hvo.flickfusion.net\/audio\/options\/options_audio_file_316.mp3","option_saftey":1},{"option_str":"Tire Pressure Monitor","option_file":"http:\/\/hvo.flickfusion.net\/audio\/options\/options_audio_file_36.mp3","option_saftey":2},{"option_str":"Wheel Covers","option_file":"http:\/\/hvo.flickfusion.net\/audio\/options\/options_audio_file_329.mp3","option_saftey":1},{"option_str":"Vinyl Seats","option_file":"http:\/\/hvo.flickfusion.net\/audio\/options\/options_audio_file_328.mp3","option_saftey":1},{"option_str":"Tires - Front Performance","option_file":"http:\/\/hvo.flickfusion.net\/audio\/options\/options_audio_file_311.mp3","option_saftey":1},{"option_str":"Smart Device Integration","option_file":"","option_saftey":1},{"option_str":"Variable Speed Intermittent Wipers","option_file":"http:\/\/hvo.flickfusion.net\/audio\/options\/options_audio_file_325.mp3","option_saftey":1}],"yearFile":"http:\/\/hvo.flickfusion.net\/audio\/year\/year_audio_file_35.mp3","makeFile":"http:\/\/hvo.flickfusion.net\/audio\/makes\/make_name_audio_file_14.mp3","modelFile":"http:\/\/hvo.flickfusion.net\/audio\/mdlnames\/model_name_audio_file_41.mp3","modelHighlightFile":"http:\/\/hvo.flickfusion.net\/audio\/models\/model_audio_file_41.mp3","styleFile":"","bodytypeFile":"","transFile":"http:\/\/hvo.flickfusion.net\/audio\/domain_transmission\/transmission_audio_file_2.mp3","engineFile":"http:\/\/hvo.flickfusion.net\/audio\/domain_enginesize\/enginesize_audio_file_5.mp3","cylindersFile":"http:\/\/hvo.flickfusion.net\/audio\/domain_cylinders\/cylinder_audio_file_4.Cylinder","driveTrainFile":"http:\/\/hvo.flickfusion.net\/audio\/domain_drivetrain\/drivetrain_audio_file_1.mp3","priceFile":"","mileageFile":"http:\/\/hvo.flickfusion.net\/audio\/mileage\/miles_audio_file_27.mp3","carfaxFile":"","emotionalFile":"http:\/\/hvo.flickfusion.net\/audio\/emotional\/emotional_audio_file_18.mp3","introEmotionalFile":"http:\/\/hvo.flickfusion.net\/audio\/emotional\/ie_audio_file_26.mp3","scriptFile":"http:\/\/hvo.flickfusion.net\/audio\/domain_scripts\/script_audio_file_24.mp3","statusCode":"1","statusMessage":"Audio Files Sent"}
22:01:14 - /var/www/html/clients/3493/audio/10F210AA-5440-36BE-0E20-242344E3C18B.wav
22:01:14 - ================Process HVO SOAP CALL CMD=========== 
 /usr/bin/sox
 STATUS CODE 
 1
22:01:14 - /var/app/video_pre_processor/assets/hvo/ie_audio_file_26.wav PlayTime:1.96
22:01:14 - /var/app/video_pre_processor/assets/hvo/year_audio_file_35.wav PlayTime:1.8
22:01:14 - /var/app/video_pre_processor/assets/hvo/model_name_audio_file_41.wav PlayTime:1.96
22:01:14 - /var/app/video_pre_processor/assets/hvo/model_audio_file_41.wav PlayTime:4.31
22:01:14 - Skipping VTT for BODY - bodytypeFile
22:01:14 - Skipping VTT for PRICE - priceFile
22:01:14 - KM Check : 122688 | 0
22:01:14 - /var/app/video_pre_processor/assets/hvo/miles_audio_file_27.wav PlayTime:3.76
22:01:15 - Curl Response - {"interior":["Back-up Camera","Bluetooth","Smart Device Integration","Keyless Entry","Auxiliary Audio Input","Steering Wheel Audio Controls","Mp3 Player","Cruise Control","Power Door Locks","Power Windows","Power Steering","Passenger Air Bag","Bucket Seats","Telematics","Driver Air Bag","Third Passenger Door","Vinyl Seats","Leather Wrapped Steering Wheel","Adjustable Steering Wheel","Am\/fm Stereo Radio","Cd Player","A\/c"],"exterior":["Brake Assist","Stability Control","Tire Pressure Monitor","Intermittent Wipers","Engine Immobilizer","Steel Wheels","Fourth Passenger Door","Front Wheel Drive","4-wheel Disc Brakes","Wheel Covers","Traction Control","Variable Speed Intermittent Wipers"]}
22:01:15 - ============={"interior":["Back-up Camera","Bluetooth","Smart Device Integration","Keyless Entry","Auxiliary Audio Input","Steering Wheel Audio Controls","Mp3 Player","Cruise Control","Power Door Locks","Power Windows","Power Steering","Passenger Air Bag","Bucket Seats","Telematics","Driver Air Bag","Third Passenger Door","Vinyl Seats","Leather Wrapped Steering Wheel","Adjustable Steering Wheel","Am\/fm Stereo Radio","Cd Player","A\/c"],"exterior":["Brake Assist","Stability Control","Tire Pressure Monitor","Intermittent Wipers","Engine Immobilizer","Steel Wheels","Fourth Passenger Door","Front Wheel Drive","4-wheel Disc Brakes","Wheel Covers","Traction Control","Variable Speed Intermittent Wipers"]}===============
22:01:15 - /var/app/video_pre_processor/assets/hvo/options_audio_file_55.wav PlayTime:3.4
22:01:15 - /var/app/video_pre_processor/assets/hvo/options_audio_file_104.wav PlayTime:1.38
22:01:15 - /var/app/video_pre_processor/assets/hvo/options_audio_file_17.wav PlayTime:1.67
22:01:15 - /var/app/video_pre_processor/assets/hvo/options_audio_file_36.wav PlayTime:1.65
22:01:15 - /var/app/video_pre_processor/assets/hvo/options_audio_file_33.wav PlayTime:2.06
22:01:15 - /var/app/video_pre_processor/assets/hvo/options_audio_file_289.wav PlayTime:1.49
22:01:15 - /var/app/video_pre_processor/assets/hvo/options_audio_file_174.wav PlayTime:1.49
22:01:15 - /var/app/video_pre_processor/assets/hvo/options_audio_file_170.wav PlayTime:1.31
22:01:15 - /var/app/video_pre_processor/assets/hvo/options_audio_file_63.wav PlayTime:1.65
22:01:15 - /var/app/video_pre_processor/assets/hvo/options_audio_file_329.wav PlayTime:1.15
22:01:15 - /var/app/video_pre_processor/assets/hvo/options_audio_file_18.wav PlayTime:1.38
22:01:15 - ======= ALL Options  ========== 
null
22:01:15 - /var/www/html/clients/3493/audio/10F210AA-5440-36BE-0E20-242344E3C18B_option.wav
22:01:15 - /usr/bin/sox /var/app/video_pre_processor/assets/hvo/options_audio_file_55.wav /var/app/video_pre_processor/assets/hvo/options_audio_file_104.wav /var/app/video_pre_processor/assets/hvo/options_audio_file_17.wav /var/app/video_pre_processor/assets/hvo/options_audio_file_36.wav /var/app/video_pre_processor/assets/hvo/options_audio_file_33.wav /var/app/video_pre_processor/assets/hvo/options_audio_file_289.wav /var/app/video_pre_processor/assets/hvo/options_audio_file_174.wav /var/app/video_pre_processor/assets/hvo/options_audio_file_170.wav /var/app/video_pre_processor/assets/hvo/options_audio_file_63.wav /var/app/video_pre_processor/assets/hvo/options_audio_file_329.wav /var/app/video_pre_processor/assets/hvo/options_audio_file_18.wav /var/www/html/clients/3493/audio/10F210AA-5440-36BE-0E20-242344E3C18B_option.wav
22:01:15 - /var/www/html/clients/3493/audio/10F210AA-5440-36BE-0E20-242344E3C18B_option.wav PlayTime:18.63
22:01:15 - Skipping VTT for CARFAX - carfaxFile
22:01:15 - /var/app/video_pre_processor/assets/hvo/emotional_audio_file_18.wav PlayTime:5.77
22:01:15 - /usr/bin/sox /var/app/video_pre_processor/assets/hvo/ie_audio_file_26.wav /var/app/video_pre_processor/assets/hvo/year_audio_file_35.wav /var/app/video_pre_processor/assets/hvo/model_name_audio_file_41.wav /var/app/video_pre_processor/assets/hvo/model_audio_file_41.wav /var/app/video_pre_processor/assets/hvo/miles_audio_file_27.wav /var/www/html/clients/3493/audio/10F210AA-5440-36BE-0E20-242344E3C18B_option.wav /var/app/video_pre_processor/assets/hvo/emotional_audio_file_18.wav /var/www/html/clients/3493/audio/10F210AA-5440-36BE-0E20-242344E3C18B_temp1.wav
22:01:15 - Return from CheckProfileVal function::0 - REPLACE_FULL_AUDIO - 
22:01:15 - Return from CheckProfileVal function::0 - REPLACE_FULL_AUDIO_NEW - 
22:01:15 - ========REPALCE AUDIO TRACK LISTING TYPE used \ n USED VALUE : 0 NEW AUDIO VALUE : { 0} ==============

22:01:15 - Video Length for audio merge: 0
22:01:15 - /root/bin/ffmpeg  -i /var/www/html/clients/3493/audio/10F210AA-5440-36BE-0E20-242344E3C18B.wav -f mp3 -ar 44100 -ab 320 -ac 2 -y /var/www/html/clients/3493/audio/10F210AA-5440-36BE-0E20-242344E3C18B.mp3
ffmpeg version N-109053-g9b13078c6a Copyright (c) 2000-2022 the FFmpeg developers
  built with gcc 5.4.0 (GCC)
  configuration: --prefix=/root/ffmpeg_build --pkg-config-flags=--static --extra-cflags=-I/root/ffmpeg_build/include --extra-ldflags=-L/root/ffmpeg_build/lib --extra-libs=-lpthread --extra-libs=-lm --bindir=/root/bin --enable-gpl --enable-libfdk_aac --enable-libfreetype --enable-libmp3lame --enable-libopus --enable-libvpx --enable-libx264 --enable-openssl --enable-libx265 --enable-nonfree --enable-libvidstab
  libavutil      57. 42.100 / 57. 42.100
  libavcodec     59. 52.101 / 59. 52.101
  libavformat    59. 34.101 / 59. 34.101
  libavdevice    59.  8.101 / 59.  8.101
  libavfilter     8. 50.100 /  8. 50.100
  libswscale      6.  8.112 /  6.  8.112
  libswresample   4.  9.100 /  4.  9.100
  libpostproc    56.  7.100 / 56.  7.100
Guessed Channel Layout for Input Stream #0.0 : stereo
Input #0, wav, from '/var/www/html/clients/3493/audio/10F210AA-5440-36BE-0E20-242344E3C18B.wav':
  Duration: 00:00:38.19, bitrate: 1411 kb/s
  Stream #0:0: Audio: pcm_s16le ([1][0][0][0] / 0x0001), 44100 Hz, 2 channels, s16, 1411 kb/s
Stream mapping:
  Stream #0:0 -> #0:0 (pcm_s16le (native) -> mp3 (libmp3lame))
Press [q] to stop, [?] for help
[libmp3lame @ 0x4000480] Bitrate 320 is extremely low, maybe you mean 320k
The bitrate parameter is set too low. It takes bits/s as argument, not kbits/s
Output #0, mp3, to '/var/www/html/clients/3493/audio/10F210AA-5440-36BE-0E20-242344E3C18B.mp3':
  Metadata:
    TSSE            : Lavf59.34.101
  Stream #0:0: Audio: mp3, 44100 Hz, stereo, s16p, 0 kb/s
    Metadata:
      encoder         : Lavc59.52.101 libmp3lame
size=       0kB time=-577014:32:22.77 bitrate=  -0.0kbits/s speed=N/A    
size=     102kB time=00:00:06.50 bitrate= 128.3kbits/s speed=  13x    
size=     219kB time=00:00:13.97 bitrate= 128.1kbits/s speed=13.9x    
size=     256kB time=00:00:21.18 bitrate=  99.0kbits/s speed=14.1x    
size=     256kB time=00:00:28.50 bitrate=  73.6kbits/s speed=14.2x    
size=     512kB time=00:00:35.91 bitrate= 116.8kbits/s speed=14.3x    
size=     597kB time=00:00:38.16 bitrate= 128.2kbits/s speed=14.4x    
video:0kB audio:597kB subtitle:0kB other streams:0kB global headers:0kB muxing overhead: 0.041375%
22:01:17 - /var/app/video_pre_processor/assets/vidbot/_files/audio/No Music.mp3 PlayTime:0
22:01:17 - Using bgmusic.mp3 - /var/app/video_pre_processor/assets/vidbot/_files/audio/No Music.mp3
22:01:17 - BG MUSIC FILE /var/app/video_pre_processor/assets/vidbot/_files/audio/bgmusic.mp3 

22:01:17 - BG AUDIO CLIENT OVELAY VALUE : 0 

22:01:17 - /var/www/html/clients/3493/audio/10F210AA-5440-36BE-0E20-242344E3C18B.wav PlayTime:38.19
22:01:17 - VParent - VOLEN:40.19 | /var/www/html/clients/3493/audio/10F210AA-5440-36BE-0E20-242344E3C18B.mp3 | /var/app/video_pre_processor/assets/vidbot/_files/audio/bgmusic.mp3 | /var/www/html/clients/3493/audio/10F210AA-5440-36BE-0E20-242344E3C18B.wav
22:01:17 - AUDIO PROCESS RETURN VALUE: - 1
22:01:17 - update message_remote_queue set video_process_start = '2024-06-24 22:01:17' where queue_id = 306789
22:01:17 - CLIENT INFO DATA 
{"client_id":"3493","client_fk":"2C6A657A-A657-1B2D-C1E3-4FE19E2CEF9C","client_acc_id":"3","client_name":"JS Test Dealer","client_desc":"JS Test Dealer","client_color":"","client_player_color":"","client_textcolor":"","client_tts_text":"","client_tts_options":"","client_inactive":"0","client_createdate":"2014-09-05 13:10:34","client_enddate":"","client_update":"2020-02-20 16:03:16","client_email_forward":"","client_dealer_id":"2050675","client_franchise_number":"","client_salesperson_name":"","client_address":"","client_city":"","client_state":"","client_zip":"","client_phone":"","client_url":"","client_fb_id":"","client_km":"0","client_special_price":"0","client_demo":"1","client_utube_flag":"0","client_cvo":"0","client_tts":"1","client_live_uv":"1","client_live_overlay":"0","client_av":"1","client_gv":"0","client_af":"0","client_video_email":"0","client_carfax":"1","client_intro":"0","client_outro":"0","client_slider":"1","client_music_id":"20","client_ei":"0","client_tts_vm":"3","client_hvo":"1","client_mobile":"1","client_portal":"0","client_instavid":"0","client_new_stock_video":"0","client_vidmagnet":"0","client_auto_play":"1","client_cpo":"1","client_vid_stab":"0","client_vp":"0","client_xl":"0","client_carstory":"0","client_360_player":"0","client_ece":"0","client_capture_video":"0","client_new_cvo":"0","client_pip":"1","client_account_id":"1","client_crm_email":"","client_crm_dealer_id":"","client_crm_dealer_key":"","client_archive":"0","client_damage_photo":"0","client_package":"6","client_video_size":"HDLARGE","client_video_style":"FULL","client_lat_lng":"","client_comments":"","SHOW_CARSTORY":"0"}
22:01:17 180 - ShellApp::DownloadExternalFile - Array
(
    [url] => http://gcsimages.storage.googleapis.com/clients/3493/library/map.jpg
    [content_type] => application/xml; charset=UTF-8
    [http_code] => 403
    [header_size] => 410
    [request_size] => 225
    [filetime] => -1
    [ssl_verify_result] => 0
    [redirect_count] => 0
    [total_time] => 0.091141
    [namelookup_time] => 0.004163
    [connect_time] => 0.026883
    [pretransfer_time] => 0.026922
    [size_upload] => 0
    [size_download] => 298
    [speed_download] => 3269
    [speed_upload] => 0
    [download_content_length] => 298
    [upload_content_length] => 0
    [starttransfer_time] => 0.091125
    [redirect_time] => 0
    [redirect_url] => 
    [primary_ip] => 142.250.191.187
    [certinfo] => Array
        (
        )

    [primary_port] => 80
    [local_ip] => 209.59.156.167
    [local_port] => 58762
)

22:01:17 - File Download Failed http://gcsimages.storage.googleapis.com/clients/3493/library/map.jpg - /var/www/html/clients/3493/library/map.jpg
22:01:17 - ERROR:: Invalid Dealer Address - , ,   
22:01:17 - Checking CUSTOM_INTRO
22:01:17 - Checking CUSTOM_OUTRO
22:01:17 - ================CREATE VIDEO START =========== 

22:01:17 - ================VIDEO JSON GEN START ==============
22:01:17 - Video Size 360
22:01:17 - ===========Video Theme font ================Dinot
22:01:17 - ==========Video fk : ==============10F210AA-5440-36BE-0E20-242344E3C18B
22:01:17 - ==============AUDIO VIDEO CONFIG : =========={"BG_MUSIC":"No Music","THEME_BG_COLOR":"ffffff","THEME_ACCENTS_COLOR":"047ec1","THEME_FONT_COLOR":"000000","THEME_FONT":"Dinot","THEME_STYLE":"Ren","BG_VOL_LEVEL":"0.25","AUDIO_VO":"VO","VIDEO_SIZE":"VIDEO_LARGE","CUSTOM_INTRO":"","CUSTOM_OUTRO":"","THEME_KEY":"3_0_Auto_Default_0_ALL","THEME_RANK":"2","THEME_CONFIG":"RESELLER_CONFIG","DISABLE_PRICE":"YES","DISPLAY_INFO":"NO","DISPLAY_MAP":"NO","DISPLAY_MILEAGE":"NO","DISPLAY_OPTIONS":"NO","DISPLAY_PRICE":"NO","OLD_BG_STYLE":"0"}
22:01:17 - CLIENT FKEY :  2C6A657A-A657-1B2D-C1E3-4FE19E2CEF9C  VIDEO FKEY :  10F210AA-5440-36BE-0E20-242344E3C18B  VEHICLE FKEY :   
22:01:17 - INFO:: Video Type:SS Video Size:360 
22:01:17 - Return from CheckProfileVal function::0 - DISPLAY_MILEAGE - NO
22:01:17 - Return from CheckProfileVal function::1 - DISPLAY_MILEAGE - NO
22:01:17 - ==================ClipsGen START  =====================

22:01:17 - Return from CheckProfileVal function::0 - AUDIO_VO - NO_VO
22:01:17 - Return from CheckProfileVal function::0 - AUDIO_VO - NO_VO
22:01:17 - Return from CheckProfileVal function::0 - AUDIO_VO - LIVE_VO
22:01:17 - Return from CheckProfileVal function::0 - AUDIO_VO - LIVE_VO
22:01:17 - Return from CheckProfileVal function::0 - DISPLAY_OPTIONS - NO
22:01:17 - Return from CheckProfileVal function::1 - DISPLAY_OPTIONS - NO
22:01:17 - Return from CheckProfileVal function::0 - DISPLAY_PRICE - NO
22:01:17 - Return from CheckProfileVal function::1 - DISPLAY_PRICE - NO
22:01:17 - Return from CheckProfileVal function::0 - DISPLAY_MILEAGE - NO
22:01:17 - Return from CheckProfileVal function::1 - DISPLAY_MILEAGE - NO
22:01:17 - Return from CheckProfileVal function::0 - DISPLAY_INFO - NO
22:01:17 - Return from CheckProfileVal function::1 - DISPLAY_INFO - NO
22:01:17 - Return from CheckProfileVal function::0 - DISPLAY_TITLE_WSNAME - NO
22:01:17 - Return from CheckProfileVal function::0 - DISPLAY_TITLE_WSNAME - NO
22:01:17 - Return from CheckProfileVal function::0 - DISPLAY_ALL_OVERLAYS - NO
22:01:17 - Return from CheckProfileVal function::0 - DISPLAY_ALL_OVERLAYS - NO
22:01:17 - Return from CheckProfileVal function::0 - DISPLAY_MAP - NO
22:01:17 - Return from CheckProfileVal function::1 - DISPLAY_MAP - NO
22:01:17 - =========THEME STYLE-FONT :Ren - Din  ============
22:01:17 - /var/app/video_pre_processor/assets/vidbot/_files/audio/bgmusic.mp3 PlayTime:957.94
22:01:17 - /var/app/video_pre_processor/assets/cpo/carfax_1owner/carfax_1owner_360.mp4 PlayTime:14.63
22:01:17 - Return from CheckProfileVal function::0 - BG_MUSIC_OVER_ALL_CLIPS - YES
22:01:17 - Return from CheckProfileVal function::0 - BG_MUSIC_OVER_ALL_CLIPS - YES
22:01:17 - AUDIO TIMER: 
{"INTRO":0,"YEAR":1.96,"MODEL":3.76,"HIGH":5.72,"MILE":10.03,"ALL_OPTIONS":{"* General Options Intro":13.79,"Brake Assist":17.189999999999998,"Stability Control":18.569999999999997,"Tire Pressure Monitor":20.239999999999995,"Engine Immobilizer":21.889999999999993,"Steel Wheels":23.949999999999992,"Fourth Passenger Door":25.43999999999999,"Front Wheel Drive":26.92999999999999,"4-wheel Disc Brakes":28.239999999999988,"Wheel Covers":29.889999999999986,"Traction Control":31.039999999999985},"OPTIONS":15.79,"OPTIONS_AUD_LENGTH":18.63,"ENDFILE":32.41999999999999}
22:01:17 - ===================ClipsGen END  ======================== 

22:01:17 - INFO:: VIDEO JSON : "10F210AA-5440-36BE-0E20-242344E3C18B.json"
22:01:17 - node /var/app/Vidbot-V2/dist/vidbot.js --input /var/www/html/clients/3493/video/10F210AA-5440-36BE-0E20-242344E3C18B.json --log debug > /var/www/html/clients/3493/video/10F210AA-5440-36BE-0E20-242344E3C18B.log
22:05:24 - Generated Video File./var/www/html/clients/3493/video/10F210AA-5440-36BE-0E20-242344E3C18B.mp4
22:05:24 - INFO:: Generated Video File./var/www/html/clients/3493/video/10F210AA-5440-36BE-0E20-242344E3C18B.mp4
22:05:24 - INFO:: Sprite & Bookmark Option(s) not enabled
22:05:24 - ================VIDEO JSON GEN END RETURN VALUE : 1 ============== 
22:05:24 - ================CREATE VIDEO END =========== 
 ERROR : { 0}
22:05:24 - Start Time:0
22:05:24 - 0##1.96##You are going to love
22:05:24 - 1.96##3.76##The 2018
22:05:24 - 3.76##5.72##Transit Connect
22:05:24 - 5.72##10.03##Ford Transit the right size the whole world round.
22:05:24 - 10.03##13.79##This Vehicle has less than 125000 miles
22:05:24 - Replacing VTT String * General Options Intro to Here are some of this Vehicle's great options
22:05:24 - 13.79##17.19##Here are some of this Vehicle's great options
22:05:24 - 17.19##18.57##Brake Assist
22:05:24 - 18.57##20.24##Stability Control
22:05:24 - 20.24##21.89##Tire Pressure Monitor
22:05:24 - 21.89##23.95##Engine Immobilizer
22:05:24 - 23.95##25.44##Steel Wheels
22:05:24 - 25.44##26.93##Fourth Passenger Door
22:05:24 - 26.93##28.24##Front Wheel Drive
22:05:24 - 28.24##29.89##4-wheel Disc Brakes
22:05:24 - 29.89##31.04##Wheel Covers
22:05:24 - 31.04##32.42##Traction Control
22:05:24 - 32.42##38.19##A vehicle like this doesn't come along everyday.  Come in and get it before someone else does!
22:05:24 - 60##74.63##This is a one owner vehicle with carfax vehicle history report be sure to find the complimentary copy of this report online or contact the dealership this vehicle qualifies for the carfax buyback guarantee.
22:05:25 - Curl Response - {"code":200,"status":"VTT Updated"}
22:05:25 - Contents - /postVTTString/ - VTT Updated - 200
0##1.96##You are going to love|||1.96##3.76##The 2018|||3.76##5.72##Transit Connect|||5.72##10.03##Ford Transit the right size the whole world round.|||10.03##13.79##This Vehicle has less than 125000 miles|||13.79##17.19##Here are some of this Vehicle's great options|||17.19##18.57##Brake Assist|||18.57##20.24##Stability Control|||20.24##21.89##Tire Pressure Monitor|||21.89##23.95##Engine Immobilizer|||23.95##25.44##Steel Wheels|||25.44##26.93##Fourth Passenger Door|||26.93##28.24##Front Wheel Drive|||28.24##29.89##4-wheel Disc Brakes|||29.89##31.04##Wheel Covers|||31.04##32.42##Traction Control|||32.42##38.19##A vehicle like this doesn't come along everyday.  Come in and get it before someone else does!|||60##74.63##This is a one owner vehicle with carfax vehicle history report be sure to find the complimentary copy of this report online or contact the dealership this vehicle qualifies for the carfax buyback guarantee.
22:05:25 - VIDEO JSON GEN RETURN VALUE: - 0
22:05:25 - update message_remote_queue set error=0, video = 1, error_message = concat( "", error_message ), process_start = '2024-06-24 22:01:14', audio_process_start = '2024-06-24 22:01:14', audio_process_end = '2024-06-24 22:01:17', video_process_start ='2024-06-24 22:01:17', video_process_end='2024-06-24 22:05:25' where queue_id = 306789
22:05:25 - ==39 - 1 Elapsed Time 251.23 ==

22:05:25 - update queue_status set stat_last_update=NOW(), type_cnt = 39, type_loop_cnt = 444 where type_val = 'V6'
22:05:25 - Curl Response - {"code":200,"status":"Success:PostServerProcessDetails Posted For IP [209.59.156.167] and Process [V6]"}
22:05:25 - Contents - /postServerProcessDetails/ - Success:PostServerProcessDetails Posted For IP [209.59.156.167] and Process [V6] - 200
22:05:25 - update queue_status set stat_last_update=NOW(), type_cnt = 39, type_loop_cnt = 444 where type_val = 'V6'
22:05:25 - Curl Response - {"code":200,"status":"Success:PostServerProcessDetails Posted For IP [209.59.156.167] and Process [V6]"}
22:05:25 - Contents - /postServerProcessDetails/ - Success:PostServerProcessDetails Posted For IP [209.59.156.167] and Process [V6] - 200
22:05:25 - ========== 39  - 247 mins 381.49487179487 Video Process / Start:2024-06-24 16:14:01 / Mod:5/16======
22:05:26 - Fetching  Video Jobs Mod Val : 5 Mod Limit : 16 Queue ID : 0 

22:05:26 - ========select * from message_remote_queue, hvo_data where queue_id%16 = 5 and image = 1 and video = 0 and error = 0 and hvo_queue_id = queue_id   order by high_priority_row desc, queue_id asc limit 1==================count =0
22:05:26 - update queue_status set stat_last_update=NOW(), type_cnt = 39, type_loop_cnt = 445 where type_val = 'V6'
22:05:26 - Curl Response - {"code":200,"status":"Success:PostServerProcessDetails Posted For IP [209.59.156.167] and Process [V6]"}
22:05:26 - Contents - /postServerProcessDetails/ - Success:PostServerProcessDetails Posted For IP [209.59.156.167] and Process [V6] - 200
22:05:26 - ========== 39  - 247 mins 381.49487179487 Video Process / Start:2024-06-24 16:14:01 / Mod:5/16======
22:05:41 - Fetching  Video Jobs Mod Val : 5 Mod Limit : 16 Queue ID : 0 

22:05:41 - ========select * from message_remote_queue, hvo_data where queue_id%16 = 5 and image = 1 and video = 0 and error = 0 and hvo_queue_id = queue_id   order by high_priority_row desc, queue_id asc limit 1==================count =0
22:05:41 - update queue_status set stat_last_update=NOW(), type_cnt = 39, type_loop_cnt = 446 where type_val = 'V6'
22:05:41 - Curl Response - {"code":200,"status":"Success:PostServerProcessDetails Posted For IP [209.59.156.167] and Process [V6]"}
22:05:41 - Contents - /postServerProcessDetails/ - Success:PostServerProcessDetails Posted For IP [209.59.156.167] and Process [V6] - 200
22:05:41 - ========== 39  - 247 mins 381.49487179487 Video Process / Start:2024-06-24 16:14:01 / Mod:5/16======
22:05:56 - Fetching  Video Jobs Mod Val : 5 Mod Limit : 16 Queue ID : 0 

22:05:56 - ========select * from message_remote_queue, hvo_data where queue_id%16 = 5 and image = 1 and video = 0 and error = 0 and hvo_queue_id = queue_id   order by high_priority_row desc, queue_id asc limit 1==================count =0
22:05:56 - update queue_status set stat_last_update=NOW(), type_cnt = 39, type_loop_cnt = 447 where type_val = 'V6'
22:05:56 - Curl Response - {"code":200,"status":"Success:PostServerProcessDetails Posted For IP [209.59.156.167] and Process [V6]"}
22:05:56 - Contents - /postServerProcessDetails/ - Success:PostServerProcessDetails Posted For IP [209.59.156.167] and Process [V6] - 200
22:05:56 - ========== 39  - 247 mins 381.49487179487 Video Process / Start:2024-06-24 16:14:01 / Mod:5/16======
22:06:11 - Fetching  Video Jobs Mod Val : 5 Mod Limit : 16 Queue ID : 0 

22:06:11 - ========select * from message_remote_queue, hvo_data where queue_id%16 = 5 and image = 1 and video = 0 and error = 0 and hvo_queue_id = queue_id   order by high_priority_row desc, queue_id asc limit 1==================count =0
22:06:11 - update queue_status set stat_last_update=NOW(), type_cnt = 39, type_loop_cnt = 448 where type_val = 'V6'
22:06:12 - Curl Response - {"code":200,"status":"Success:PostServerProcessDetails Posted For IP [209.59.156.167] and Process [V6]"}
22:06:12 - Contents - /postServerProcessDetails/ - Success:PostServerProcessDetails Posted For IP [209.59.156.167] and Process [V6] - 200
22:06:12 - ========== 39  - 247 mins 381.49487179487 Video Process / Start:2024-06-24 16:14:01 / Mod:5/16======
22:06:27 - Fetching  Video Jobs Mod Val : 5 Mod Limit : 16 Queue ID : 0 

22:06:27 - ========select * from message_remote_queue, hvo_data where queue_id%16 = 5 and image = 1 and video = 0 and error = 0 and hvo_queue_id = queue_id   order by high_priority_row desc, queue_id asc limit 1==================count =0
22:06:27 - update queue_status set stat_last_update=NOW(), type_cnt = 39, type_loop_cnt = 449 where type_val = 'V6'
22:06:27 - Curl Response - {"code":200,"status":"Success:PostServerProcessDetails Posted For IP [209.59.156.167] and Process [V6]"}
22:06:27 - Contents - /postServerProcessDetails/ - Success:PostServerProcessDetails Posted For IP [209.59.156.167] and Process [V6] - 200
22:06:27 - ========== 39  - 247 mins 381.49487179487 Video Process / Start:2024-06-24 16:14:01 / Mod:5/16======
22:06:42 - Fetching  Video Jobs Mod Val : 5 Mod Limit : 16 Queue ID : 0 

22:06:42 - ========select * from message_remote_queue, hvo_data where queue_id%16 = 5 and image = 1 and video = 0 and error = 0 and hvo_queue_id = queue_id   order by high_priority_row desc, queue_id asc limit 1==================count =0
22:06:42 - update queue_status set stat_last_update=NOW(), type_cnt = 39, type_loop_cnt = 450 where type_val = 'V6'
22:06:42 - Curl Response - {"code":200,"status":"Success:PostServerProcessDetails Posted For IP [209.59.156.167] and Process [V6]"}
22:06:42 - Contents - /postServerProcessDetails/ - Success:PostServerProcessDetails Posted For IP [209.59.156.167] and Process [V6] - 200
22:06:42 - ========== 39  - 247 mins 381.49487179487 Video Process / Start:2024-06-24 16:14:01 / Mod:5/16======
22:06:57 - Fetching  Video Jobs Mod Val : 5 Mod Limit : 16 Queue ID : 0 

22:06:57 - ========select * from message_remote_queue, hvo_data where queue_id%16 = 5 and image = 1 and video = 0 and error = 0 and hvo_queue_id = queue_id   order by high_priority_row desc, queue_id asc limit 1==================count =0
22:06:57 - update queue_status set stat_last_update=NOW(), type_cnt = 39, type_loop_cnt = 451 where type_val = 'V6'
22:06:57 - Curl Response - {"code":200,"status":"Success:PostServerProcessDetails Posted For IP [209.59.156.167] and Process [V6]"}
22:06:57 - Contents - /postServerProcessDetails/ - Success:PostServerProcessDetails Posted For IP [209.59.156.167] and Process [V6] - 200
22:06:57 - ========== 39  - 247 mins 381.49487179487 Video Process / Start:2024-06-24 16:14:01 / Mod:5/16======
22:07:12 - Fetching  Video Jobs Mod Val : 5 Mod Limit : 16 Queue ID : 0 

22:07:12 - ========select * from message_remote_queue, hvo_data where queue_id%16 = 5 and image = 1 and video = 0 and error = 0 and hvo_queue_id = queue_id   order by high_priority_row desc, queue_id asc limit 1==================count =1
22:07:12 - Processing Auto VideoFKEY:F234E6C5-C253-3186-B811-C421921D8361 - QueueID:306805 
22:07:12 - CLIENT INFO  CLIENT_FK  : 504C4200-3C75-E438-B3B0-B44F2CED3A34 ,CLIENT_INFO :{"client_id":"5956","client_fk":"504C4200-3C75-E438-B3B0-B44F2CED3A34","client_acc_id":"3","client_name":"Toyota Direct","client_desc":"Toyota Direct","client_color":"00DBDB","client_player_color":"","client_textcolor":"","client_tts_text":"","client_tts_options":"","client_inactive":"0","client_createdate":"2016-08-05 14:02:46","client_enddate":"","client_update":"2023-12-07 08:27:30","client_email_forward":"","client_dealer_id":"2182142","client_franchise_number":"","client_salesperson_name":"Internet Sales","client_address":"4248 Morse Road","client_city":"Columbus","client_state":"OH","client_zip":"43230","client_phone":"888-279-1570","client_url":"http://www.toyotadirect.com","client_fb_id":"0","client_km":"0","client_special_price":"0","client_demo":"0","client_utube_flag":"1","client_cvo":"0","client_tts":"0","client_live_uv":"1","client_live_overlay":"2","client_av":"0","client_gv":"0","client_af":"0","client_video_email":"0","client_carfax":"0","client_intro":"0","client_outro":"1","client_slider":"0","client_music_id":"10","client_ei":"0","client_tts_vm":"2","client_hvo":"1","client_mobile":"0","client_portal":"0","client_instavid":"0","client_new_stock_video":"0","client_vidmagnet":"0","client_auto_play":"1","client_cpo":"1","client_vid_stab":"0","client_vp":"0","client_xl":"1","client_carstory":"0","client_360_player":"0","client_ece":"0","client_capture_video":"0","client_new_cvo":"0","client_pip":"1","client_account_id":"1","client_crm_email":"","client_crm_dealer_id":"","client_crm_dealer_key":"","client_archive":"0","client_damage_photo":"0","client_package":"5","client_video_size":"HDXLARGE","client_video_style":"FULL","client_lat_lng":"","client_comments":"","ftp_extract_images":"0","OUTRO_AUDIO":"YES","VIDEO_SIZE":"HD-XLARGE","SHOW_CARSTORY":"0"}
22:07:12 - Rest Call: /client/videoDetails/504C4200-3C75-E438-B3B0-B44F2CED3A34?video_key=F234E6C5-C253-3186-B811-C421921D8361
22:07:12 - Curl Response - {"video_id":"48899943","video_fk":"F234E6C5-C253-3186-B811-C421921D8361","vehicle_id":"43124567","video_client_id":"5956","video_script":"THIS VEHICLE IS LOCATED AT OUR DRIVE DIRECT LOCATION 2361 MORSE RD. COLUMBUS, OHIO 43229.PRICED $4330 BELOW KBB FAIR PURCHASE PRICE!!! CARFAX VERIFIED 1 OWNER! Free Carfax Report *DESIRABLE FEATURES:* APPLE CARPLAY, ANDROID AUTO, CLEAN CARFAX, CARFAX 1-OWNER, APPLE CARPLAY, ANDROID AUTO, WIFI, ALUMINUM-WHEELS, LANE DEPART WARNING.This front wheel drive 2021 Toyota Corolla SE features an impressive 2 Engine with a Barcelona Red Metallic W\/black Sand Pearl Roof Exterior with a Moonstone Fabric Interior. With only 19,861 miles this 2021 Toyota Corolla is your best buy in Columbus, OH.*TECHNOLOGY FEATURES:* This 2021 Toyota Corolla in Columbus, OH Includes: GPS System, WiFi Mobile Hotspot, Bluetooth Connection, SiriusXM Satellite Radio, Smart Device Integration, Keyless Entry*STOCK# MP096251A* Drive Direct has this 2021 Toyota Corolla SE ready for a quick sale today. Don't forget Drive Direct Columbus will buy or trade for your car, truck, SUV, van, motorcycle and\/or ATV!*DEALER CONTACT INFO:* Call Drive Direct today at *614-476-4118 TO SCHEDULE YOUR TEST DRIVE* of this 2021 Toyota Corolla SE! Drive Direct of Columbus, New Albany, Gahanna, Westerville & Worthington, OH. You can also visit us at, 2361 Morse Rd. Columbus OH, 43229 to check it out in person!*MECHANICAL FEATURES:* Scores 40.0 Highway MPG and 31.0 City MPG! This Toyota Corolla comes Factory equipped with an impressive 2 engine, an 10-speed automatic\/cvt w\/od transmission. Other Installed Mechanical Features Include Power Windows, Heated Mirrors, Traction Control, Power Mirrors, Front Wheel Drive, Power Locks, Cruise Control, Disc Brakes, Intermittent Wipers, Trip Computer, Tires - Front Performance, Tires - Rear Performance, Power Steering, Remote Trunk Release, Variable Speed Intermittent Wipers, Tachometer*INTERIOR OPTIONS:* New Albany, Gahanna & Westerville, OH used car shoppers are lighting up the phones at our Columbus OH dealership over these interior options: Automatic Climate Control, Cloth Seats, Leather Wrapped Steering Wheel, Pass-Through Rear Seat, Illuminated entry, Bucket Seats, Air Conditioning, Steering Wheel Cruise Control, Steering Wheel Audio Controls, Driver Illuminated Vanity Mirror, Telescoping Wheel, Rear Seat Center Armrest, Passenger Illuminated Visor Mirror, Steering Wheel Controls, Bench Seat, Tilt Steering Wheel, Trip Odometer, Reading Lights, Split Folding Rear Seat, Center Armrest, AM\/FM Stereo, Auxiliary Audio Input, Outside Temperature Gauge, MP3 Compatible Radio, Vanity Mirrors, Rear Window Defroster*EXTERIOR OPTIONS:* Whether driving to From New Albany to Westerville, you'll arrive in style with exterior options like: Alloy Wheels, Color Matched Bumpers, Auto Headlamp, Spoiler \/ Ground Effects, Spare Tire *Small Size**SAFETY OPTIONS:* Whether making a cross-town Columbus commute from Worthington to Grove City or car pooling precious cargo to after school sports practice, you'll enjoy peace of mind with the following safety equipment options: Lane Departure Warning, Back-Up Camera, Lane Keeping Assist System, Electronic Stability Control, LED Headlights, Integrated Turn Signal Mirrors, Cruise Control Steering Assist, Front Collision Mitigation, Brake Assist, Anti Theft System, Daytime Running Lights, Dual Air Bags, ABS Brakes, Adaptive Cruise Control, Drivers Air Bag, Tire Pressure Monitoring System, Delay-off headlights, Auto Highbeams, Knee AirBag, Driver Alert System, Overhead airbag, Rear Air Bag, Passenger Air Bag Sensor, Child Proof Locks, Front Head Air Bag, Driver Front Side Air Bag, Passenger Front Side Impact Airbag*Used Cars Columbus Ohio:* with over 365 used cars for sale at our Columbus, Ohio dealership. Drive Direct has the used cars Columbus, Ohio shoppers trust for safety, reliability and service. This week you'll select from one of the 19 Toyota Corolla sedans like this Barcelona Red Metallic W\/black Sand Pearl Roof 2021 Toyota Corolla SE that we have in stock!**Don't want to spend the extra money on Factory Navigation? Well this Vehicle is compatible to have Full On Screen Dash Display Navigation by plugging in your iPhone or Android phone (Apple CarPlay and Android Auto!) iPhone- iOS 7.1 or later, iPhone5 or later. iPhone Maps, Messaging, Phone, Music and compatible 3rd Party Apps. Android- 5.0 or Higher. Google Maps, Google Now, Phone, Messaging, Music and Numerous Popular Aps. **","video_tts_script":"THIS VEHICLE IS LOCATED AT OUR DRIVE DIRECT LOCATION 2361 MORSE RD. COLUMBUS, OHIO 43229.PRICED $4330 BELOW KBB FAIR PURCHASE PRICE!!! CARFAX VERIFIED 1 OWNER! Free Carfax Report *DESIRABLE FEATURES:* APPLE CARPLAY, ANDROID AUTO, CLEAN CARFAX, CARFAX 1-OWNER, APPLE CARPLAY, ANDROID AUTO, WIFI, ALUMINUM-WHEELS, LANE DEPART WARNING.This front wheel drive 2021 Toyota Corolla SE features an impressive 2 Engine with a Barcelona Red Metallic W\/black Sand Pearl Roof Exterior with a Moonstone Fabric Interior. With only 19,861 miles this 2021 Toyota Corolla is your best buy in Columbus, OH.*TECHNOLOGY FEATURES:* This 2021 Toyota Corolla in Columbus, OH Includes: GPS System, WiFi Mobile Hotspot, Bluetooth Connection, SiriusXM Satellite Radio, Smart Device Integration, Keyless Entry*STOCK# MP096251A* Drive Direct has this 2021 Toyota Corolla SE ready for a quick sale today. Don't forget Drive Direct Columbus will buy or trade for your car, truck, SUV, van, motorcycle and\/or ATV!*DEALER CONTACT INFO:* Call Drive Direct today at *614-476-4118 TO SCHEDULE YOUR TEST DRIVE* of this 2021 Toyota Corolla SE! Drive Direct of Columbus, New Albany, Gahanna, Westerville & Worthington, OH. You can also visit us at, 2361 Morse Rd. Columbus OH, 43229 to check it out in person!*MECHANICAL FEATURES:* Scores 40.0 Highway MPG and 31.0 City MPG! This Toyota Corolla comes Factory equipped with an impressive 2 engine, an 10-speed automatic\/cvt w\/od transmission. Other Installed Mechanical Features Include Power Windows, Heated Mirrors, Traction Control, Power Mirrors, Front Wheel Drive, Power Locks, Cruise Control, Disc Brakes, Intermittent Wipers, Trip Computer, Tires - Front Performance, Tires - Rear Performance, Power Steering, Remote Trunk Release, Variable Speed Intermittent Wipers, Tachometer*INTERIOR OPTIONS:* New Albany, Gahanna & Westerville, OH used car shoppers are lighting up the phones at our Columbus OH dealership over these interior options: Automatic Climate Control, Cloth Seats, Leather Wrapped Steering Wheel, Pass-Through Rear Seat, Illuminated entry, Bucket Seats, Air Conditioning, Steering Wheel Cruise Control, Steering Wheel Audio Controls, Driver Illuminated Vanity Mirror, Telescoping Wheel, Rear Seat Center Armrest, Passenger Illuminated Visor Mirror, Steering Wheel Controls, Bench Seat, Tilt Steering Wheel, Trip Odometer, Reading Lights, Split Folding Rear Seat, Center Armrest, AM\/FM Stereo, Auxiliary Audio Input, Outside Temperature Gauge, MP3 Compatible Radio, Vanity Mirrors, Rear Window Defroster*EXTERIOR OPTIONS:* Whether driving to From New Albany to Westerville, you'll arrive in style with exterior options like: Alloy Wheels, Color Matched Bumpers, Auto Headlamp, Spoiler \/ Ground Effects, Spare Tire *Small Size**SAFETY OPTIONS:* Whether making a cross-town Columbus commute from Worthington to Grove City or car pooling precious cargo to after school sports practice, you'll enjoy peace of mind with the following safety equipment options: Lane Departure Warning, Back-Up Camera, Lane Keeping Assist System, Electronic Stability Control, LED Headlights, Integrated Turn Signal Mirrors, Cruise Control Steering Assist, Front Collision Mitigation, Brake Assist, Anti Theft System, Daytime Running Lights, Dual Air Bags, ABS Brakes, Adaptive Cruise Control, Drivers Air Bag, Tire Pressure Monitoring System, Delay-off headlights, Auto Highbeams, Knee AirBag, Driver Alert System, Overhead airbag, Rear Air Bag, Passenger Air Bag Sensor, Child Proof Locks, Front Head Air Bag, Driver Front Side Air Bag, Passenger Front Side Impact Airbag*Used Cars Columbus Ohio:* with over 365 used cars for sale at our Columbus, Ohio dealership. Drive Direct has the used cars Columbus, Ohio shoppers trust for safety, reliability and service. This week you'll select from one of the 19 Toyota Corolla sedans like this Barcelona Red Metallic W\/black Sand Pearl Roof 2021 Toyota Corolla SE that we have in stock!**Don't want to spend the extra money on Factory Navigation? Well this Vehicle is compatible to have Full On Screen Dash Display Navigation by plugging in your iPhone or Android phone (Apple CarPlay and Android Auto!) iPhone- iOS 7.1 or later, iPhone5 or later. iPhone Maps, Messaging, Phone, Music and compatible 3rd Party Apps. Android- 5.0 or Higher. Google Maps, Google Now, Phone, Messaging, Music and Numerous Popular Aps. **","video_flv":"","video_create_time":"2024-05-18 17:18:55","video_update_time":"2024-06-24 22:05:00","audio_length":"0","video_options":"6 Speakers,AM\/FM radio: SiriusXM,Radio data system,Radio: Audio,Air Conditioning,Automatic temperature control,Rear window defroster,Power steering,Power windows,Remote keyless entry,Steering wheel mounted audio controls,Four wheel independent suspension,Traction control,4-Wheel Disc Brakes,ABS brakes,Dual front impact airbags,Dual front side impact airbags,Emergency communication system: Safety Connect with 1-year trial,Front anti-roll bar,Knee airbag,Low tire pressure warning,Occupant sensing airbag,Overhead airbag,Rear anti-roll bar,Rear side impact airbag,Brake assist,Electronic Stability Control,Exterior Parking Camera Rear,Auto High-beam Headlights,Delay-off headlights,Fully automatic headlights,Panic alarm,Security system,Speed control,Bumpers: body-color,Heated door mirrors,Power door mirrors,Spoiler,Turn signal indicator mirrors,Apple CarPlay\/Android Auto,Driver door bin,Driver vanity mirror,Front reading lights,Illuminated entry,Leather Shift Knob,Outside temperature display,Passenger vanity mirror,Rear seat center armrest,Tachometer,Telescoping steering wheel","video_custom_flag":"0","video_title":"2021 TOYOTA COROLLA Gahanna, OH","video_local_title":"2021 TOYOTA COROLLA Gahanna, OH","video_frames":"20","video_image_url":"\/avavids\/1\/clients\/5956\/images\/F234E6C5-C253-3186-B811-C421921D8361_","video_pin_id":"0","video_tts_flag":"1","video_hvo_flag":"0","video_share":"1","video_default_flag":"1","video_imgsrc_urls":"https:\/\/content.homenetiol.com\/19e948b5461547bb929955bbcf667a97.jpg,https:\/\/content.homenetiol.com\/9195a93b4fb14ff5ac2a9b3a47e86c9e.jpg,https:\/\/content.homenetiol.com\/b54baff5eca042a4bb9b79f1ef7de44a.jpg,https:\/\/content.homenetiol.com\/a8287fc08d334b6db2f8ebc254d47239.jpg,https:\/\/content.homenetiol.com\/e63db6e819394ce1b7d2c3be8bfc4fb1.jpg,https:\/\/content.homenetiol.com\/7ad39515744d4ba891e6fe183483a006.jpg,https:\/\/content.homenetiol.com\/29820dd8e8f44935a0114c65a0a65634.jpg,https:\/\/content.homenetiol.com\/5da3dbab60e14de5963289eb7cc2207d.jpg,https:\/\/content.homenetiol.com\/8fef0050d4b94f02a0b37ac936c526ca.jpg,https:\/\/content.homenetiol.com\/10fadf70f1174043be88dac168904859.jpg,https:\/\/content.homenetiol.com\/0abcb6ffd8da4ee98d5317bd3d74c8f7.jpg,https:\/\/content.homenetiol.com\/11672919f9ff4997bf18984c93e653db.jpg,https:\/\/content.homenetiol.com\/01f08664a4904f969b99f905036a853d.jpg,https:\/\/content.homenetiol.com\/055973a0230f4f7fa91fa74d4c4fb1af.jpg,https:\/\/content.homenetiol.com\/044de5ce8f6b4149b2aac2dc5a749e5a.jpg,https:\/\/content.homenetiol.com\/76023e5b2250439c8476e67dd73c2dd1.jpg,https:\/\/content.homenetiol.com\/ccb1ff753a7c4d6a9be904159fff53ed.jpg,https:\/\/content.homenetiol.com\/4c62192f7b884f56975f9ec7d18777ec.jpg,https:\/\/content.homenetiol.com\/8d8cbea44185401489b35da548d89de7.jpg,https:\/\/content.homenetiol.com\/67f6ee31979a41238bfbc641e7b49cbd.jpg,https:\/\/content.homenetiol.com\/cb22af915c7a4d3b9e0e610ea0ae4255.jpg,https:\/\/content.homenetiol.com\/75e885e0ac4d460a893a52f788c54171.jpg","video_thumbnail_url":"","video_rendering_flag":"0","video_error_rendering":"","video_view_cnt":"9","video_delete_flag":"0","video_delete_time":"","video_batch_proc":"0","video_meta_data":"","video_custom_default":"0","video_external_flv":"https:\/\/gcsimages.s3.us-west-001.backblazeb2.com\/clients\/5956\/video\/F234E6C5-C253-3186-B811-C421921D8361.mp4","video_external_wflv":"","video_external_iflv":"","video_custom_uploaded":"0","vehicle_client_id":"5956","vehicle_fkey":"5A3BB95A-7D5B-637D-6F74-AF2640DF76D8","vehicle_uid":"1548165055","vehicle_vin":"5YFS4MCE9MP096251","vehicle_stock":"MP096251A","vehicle_year":"2021","vehicle_make":"Toyota","vehicle_model":"Corolla","vehicle_trim":"SE","vehicle_price":"19995","vehicle_mileage":"19861","vehicle_int_color":"Moonstone","vehicle_ext_color":"Barcelona Red Metallic W\/Black Sand Pearl Roof","vehicle_body_type":"4D Sedan","vehicle_listing_type":"Used","vehicle_citympg":"","vehicle_hwympg":"","vehicle_combmpg":"","vehicle_cylinders":"4","vehicle_engine_size":"2","vehicle_trans":"Variable","vehicle_drivetrain":"FWD","vehicle_passengers":"0","vehicle_doors":"4","vehicle_certified":"0","vehicle_special":"0","vehicle_options":"6 Speakers,AM\/FM radio: SiriusXM,Radio data system,Radio: Audio,Air Conditioning,Automatic temperature control,Rear window defroster,Power steering,Power windows,Remote keyless entry,Steering wheel mounted audio controls,Four wheel independent suspension,Traction control,4-Wheel Disc Brakes,ABS brakes,Dual front impact airbags,Dual front side impact airbags,Emergency communication system: Safety Connect with 1-year trial,Front anti-roll bar,Knee airbag,Low tire pressure warning,Occupant sensing airbag,Overhead airbag,Rear anti-roll bar,Rear side impact airbag,Brake assist,Electronic Stability Control,Exterior Parking Camera Rear,Auto High-beam Headlights,Delay-off headlights,Fully automatic headlights,Panic alarm,Security system,Speed control,Bumpers: body-color,Heated door mirrors,Power door mirrors,Spoiler,Turn signal indicator mirrors,Apple CarPlay\/Android Auto,Driver door bin,Driver vanity mirror,Front reading lights,Illuminated entry,Leather Shift Knob,Outside temperature display,Passenger vanity mirror,Rear seat center armrest,Tachometer,Telescoping steering wheel","vehicle_desc":"2021 TOYOTA COROLLA Gahanna, OHStock# MP096251A614-989-3799For more information on this vehicle and our full inventory, call 614-989-3799.Toyota Direct4248 Morse RdGahanna, OH 43230THIS VEHICLE IS LOCATED AT OUR DRIVE DIRECT LOCATION 2361 MORSE RD. COLUMBUS, OHIO 43229.PRICED $4330 BELOW KBB FAIR PURCHASE PRICE!!! CARFAX VERIFIED 1 OWNER! Free Carfax Report *DESIRABLE FEATURES:* APPLE CARPLAY, ANDROID AUTO, CLEAN CARFAX, CARFAX 1-OWNER, APPLE CARPLAY, ANDROID AUTO, WIFI, ALUMINUM-WHEELS, LANE DEPART WARNING.This front wheel drive 2021 Toyota Corolla SE features an impressive 2 Engine with a Barcelona Red Metallic W\/black Sand Pearl Roof Exterior with a Moonstone Fabric Interior. With only 19,861 miles this 2021 Toyota Corolla is your best buy in Columbus, OH.*TECHNOLOGY FEATURES:* This 2021 Toyota Corolla in Columbus, OH Includes: GPS System, WiFi Mobile Hotspot, Bluetooth Connection, SiriusXM Satellite Radio, Smart Device Integration, Keyless Entry*STOCK# MP096251A* Drive Direct has this 2021 Toyota Corolla SE ready for a quick sale today. Don't forget Drive Direct Columbus will buy or trade for your car, truck, SUV, van, motorcycle and\/or ATV!*DEALER CONTACT INFO:* Call Drive Direct today at *614-476-4118 TO SCHEDULE YOUR TEST DRIVE* of this 2021 Toyota Corolla SE! Drive Direct of Columbus, New Albany, Gahanna, Westerville & Worthington, OH. You can also visit us at, 2361 Morse Rd. Columbus OH, 43229 to check it out in person!*MECHANICAL FEATURES:* Scores 40.0 Highway MPG and 31.0 City MPG! This Toyota Corolla comes Factory equipped with an impressive 2 engine, an 10-speed automatic\/cvt w\/od transmission. Other Installed Mechanical Features Include Power Windows, Heated Mirrors, Traction Control, Power Mirrors, Front Wheel Drive, Power Locks, Cruise Control, Disc Brakes, Intermittent Wipers, Trip Computer, Tires - Front Performance, Tires - Rear Performance, Power Steering, Remote Trunk Release, Variable Speed Intermittent Wipers, Tachometer*INTERIOR OPTIONS:* New Albany, Gahanna & Westerville, OH used car shoppers are lighting up the phones at our Columbus OH dealership over these interior options: Automatic Climate Control, Cloth Seats, Leather Wrapped Steering Wheel, Pass-Through Rear Seat, Illuminated entry, Bucket Seats, Air Conditioning, Steering Wheel Cruise Control, Steering Wheel Audio Controls, Driver Illuminated Vanity Mirror, Telescoping Wheel, Rear Seat Center Armrest, Passenger Illuminated Visor Mirror, Steering Wheel Controls, Bench Seat, Tilt Steering Wheel, Trip Odometer, Reading Lights, Split Folding Rear Seat, Center Armrest, AM\/FM Stereo, Auxiliary Audio Input, Outside Temperature Gauge, MP3 Compatible Radio, Vanity Mirrors, Rear Window Defroster*EXTERIOR OPTIONS:* Whether driving to From New Albany to Westerville, you'll arrive in style with exterior options like: Alloy Wheels, Color Matched Bumpers, Auto Headlamp, Spoiler \/ Ground Effects, Spare Tire *Small Size**SAFETY OPTIONS:* Whether making a cross-town Columbus commute from Worthington to Grove City or car pooling precious cargo to after school sports practice, you'll enjoy peace of mind with the following safety equipment options: Lane Departure Warning, Back-Up Camera, Lane Keeping Assist System, Electronic Stability Control, LED Headlights, Integrated Turn Signal Mirrors, Cruise Control Steering Assist, Front Collision Mitigation, Brake Assist, Anti Theft System, Daytime Running Lights, Dual Air Bags, ABS Brakes, Adaptive Cruise Control, Drivers Air Bag, Tire Pressure Monitoring System, Delay-off headlights, Auto Highbeams, Knee AirBag, Driver Alert System, Overhead airbag, Rear Air Bag, Passenger Air Bag Sensor, Child Proof Locks, Front Head Air Bag, Driver Front Side Air Bag, Passenger Front Side Impact Airbag*Used Cars Columbus Ohio:* with over 365 used cars for sale at our Columbus, Ohio dealership. Drive Direct has the used cars Columbus, Ohio shoppers trust for safety, reliability and service. This week you'll select from one of the 19 Toyota Corolla sedans like this Barcelona Red Metallic W\/black Sand Pearl Roof 2021 Toyota Corolla SE that we have in stock!**Don't want to spend the extra money on Factory Navigation? Well this Vehicle is compatible to have Full On Screen Dash Display Navigation by plugging in your iPhone or Android phone (Apple CarPlay and Android Auto!) iPhone- iOS 7.1 or later, iPhone5 or later. iPhone Maps, Messaging, Phone, Music and compatible 3rd Party Apps. Android- 5.0 or Higher. Google Maps, Google Now, Phone, Messaging, Music and Numerous Popular Aps. **","vehicle_chrome_style_id":"","vehicle_model_num":"","vehicle_stock_video":"0","vehicle_img_cnt":"22","veh_more_info":"","vehicle_create_date":"2024-05-18 17:18:55","vehicle_update_date":"2024-06-24 22:04:06","vehicle_md5":"0917ad014f9f5096388032e684689f56","vehicle_status":"U","vehicle_add":"0","vehicle_delete_flag":"0","vehicle_delete_time":""}
22:07:12 - Rest Call: /client/getAudioVideoConfig/504C4200-3C75-E438-B3B0-B44F2CED3A34?listing_type=Used&video_type=Auto&certified=0&vehicle_make=Toyota
22:07:13 - Curl Response - {"BG_MUSIC":"HipHop","THEME_BG_COLOR":"ffffff","THEME_ACCENTS_COLOR":"047ec1","THEME_FONT_COLOR":"000000","THEME_FONT":"Din","THEME_STYLE":"Ren","BG_VOL_LEVEL":"0.25","AUDIO_VO":"VO","VIDEO_SIZE":"HD-XLARGE","CUSTOM_INTRO":"","CUSTOM_OUTRO":"","THEME_KEY":"3_0_Auto_Default_0_ALL","THEME_RANK":"2","THEME_CONFIG":"RESELLER_CONFIG","DISABLE_PRICE":"YES","DISPLAY_INFO":"NO","DISPLAY_MAP":"NO","DISPLAY_MILEAGE":"NO","DISPLAY_OPTIONS":"NO","DISPLAY_PRICE":"NO","OUTRO_AUDIO":"YES","OLD_BG_STYLE":"0"}
22:07:13 - Return from CheckProfileVal function::1 - DISABLE_PRICE - YES
22:07:13 - Return from CheckProfileVal function::0 - DISABLE_MILEAGE - YES
22:07:13 - Return from CheckProfileVal function::0 - DISABLE_CARSTORY - YES
22:07:13 - Config Information for F234E6C5-C253-3186-B811-C421921D8361 - Width:960 - CPO:1/0 - CF:0 - CS:0  - Intro:0 - Outro:1 - Ovleray:2 -THEME:3_0_Auto_Default_0_ALL
22:07:13 - https://content.homenetiol.com/19e948b5461547bb929955bbcf667a97.jpg /var/www/html/clients/5956/images/F234E6C5-C253-3186-B811-C421921D8361_1.jpg
22:07:13 - https://content.homenetiol.com/9195a93b4fb14ff5ac2a9b3a47e86c9e.jpg /var/www/html/clients/5956/images/F234E6C5-C253-3186-B811-C421921D8361_2.jpg
22:07:13 - https://content.homenetiol.com/b54baff5eca042a4bb9b79f1ef7de44a.jpg /var/www/html/clients/5956/images/F234E6C5-C253-3186-B811-C421921D8361_3.jpg
22:07:13 - https://content.homenetiol.com/a8287fc08d334b6db2f8ebc254d47239.jpg /var/www/html/clients/5956/images/F234E6C5-C253-3186-B811-C421921D8361_4.jpg
22:07:13 - https://content.homenetiol.com/e63db6e819394ce1b7d2c3be8bfc4fb1.jpg /var/www/html/clients/5956/images/F234E6C5-C253-3186-B811-C421921D8361_5.jpg
22:07:13 - https://content.homenetiol.com/7ad39515744d4ba891e6fe183483a006.jpg /var/www/html/clients/5956/images/F234E6C5-C253-3186-B811-C421921D8361_6.jpg
22:07:13 - https://content.homenetiol.com/29820dd8e8f44935a0114c65a0a65634.jpg /var/www/html/clients/5956/images/F234E6C5-C253-3186-B811-C421921D8361_7.jpg
22:07:13 - https://content.homenetiol.com/5da3dbab60e14de5963289eb7cc2207d.jpg /var/www/html/clients/5956/images/F234E6C5-C253-3186-B811-C421921D8361_8.jpg
22:07:13 - https://content.homenetiol.com/8fef0050d4b94f02a0b37ac936c526ca.jpg /var/www/html/clients/5956/images/F234E6C5-C253-3186-B811-C421921D8361_9.jpg
22:07:13 - https://content.homenetiol.com/10fadf70f1174043be88dac168904859.jpg /var/www/html/clients/5956/images/F234E6C5-C253-3186-B811-C421921D8361_10.jpg
22:07:13 - https://content.homenetiol.com/0abcb6ffd8da4ee98d5317bd3d74c8f7.jpg /var/www/html/clients/5956/images/F234E6C5-C253-3186-B811-C421921D8361_11.jpg
22:07:13 - https://content.homenetiol.com/11672919f9ff4997bf18984c93e653db.jpg /var/www/html/clients/5956/images/F234E6C5-C253-3186-B811-C421921D8361_12.jpg
22:07:13 - https://content.homenetiol.com/01f08664a4904f969b99f905036a853d.jpg /var/www/html/clients/5956/images/F234E6C5-C253-3186-B811-C421921D8361_13.jpg
22:07:13 - https://content.homenetiol.com/055973a0230f4f7fa91fa74d4c4fb1af.jpg /var/www/html/clients/5956/images/F234E6C5-C253-3186-B811-C421921D8361_14.jpg
22:07:13 - https://content.homenetiol.com/044de5ce8f6b4149b2aac2dc5a749e5a.jpg /var/www/html/clients/5956/images/F234E6C5-C253-3186-B811-C421921D8361_15.jpg
22:07:13 - https://content.homenetiol.com/76023e5b2250439c8476e67dd73c2dd1.jpg /var/www/html/clients/5956/images/F234E6C5-C253-3186-B811-C421921D8361_16.jpg
22:07:13 - https://content.homenetiol.com/ccb1ff753a7c4d6a9be904159fff53ed.jpg /var/www/html/clients/5956/images/F234E6C5-C253-3186-B811-C421921D8361_17.jpg
22:07:13 - https://content.homenetiol.com/4c62192f7b884f56975f9ec7d18777ec.jpg /var/www/html/clients/5956/images/F234E6C5-C253-3186-B811-C421921D8361_18.jpg
22:07:13 - https://content.homenetiol.com/8d8cbea44185401489b35da548d89de7.jpg /var/www/html/clients/5956/images/F234E6C5-C253-3186-B811-C421921D8361_19.jpg
22:07:13 - https://content.homenetiol.com/67f6ee31979a41238bfbc641e7b49cbd.jpg /var/www/html/clients/5956/images/F234E6C5-C253-3186-B811-C421921D8361_20.jpg
22:07:13 - Image Count 20
22:07:13 - Setting Female English VO Constants | 0 | 0
22:07:13 - ====HVO Value:1, Audio Value:0===
22:07:13 - Return from CheckProfileVal function::0 - AUDIO_INTRO - 
22:07:13 - Return from CheckProfileVal function::0 - AUDIO_OUTRO - 
22:07:13 - ================Process HVO=========== 
 1
22:07:13 - ================CLIENT SELECT TTS VM VALUE=========== 
 2
22:07:13 - 2 - 2 - /var/app/video_pre_processor/assets/hvo/
22:07:13 - Setting Female English VO Constants | 0 | 2
22:07:13 - HVO Soap Call Method - AudoListWMIE 

22:07:13 - Getting Text For Audio Files
22:07:13 - HVO Soap Call Method - AudoListTWMIE 

22:07:13 - Getting Text For Audio Files emotionalFile 2
22:07:13 - HVO Soap Call Method - GetTTScripts 

22:07:13 - Getting Text For Audio Files introEmotionalFile 24
22:07:13 - HVO Soap Call Method - GetTTScripts 

22:07:13 - Getting Text For Audio Files scriptFile 21
22:07:13 - HVO Soap Call Method - GetTTScripts 

22:07:13 - ================TTS VM VALUE=========== 
 2
22:07:13 - ================GetVOFiles=========== 
 {"OptionFiles":[{"option_str":"* General Options Intro","option_file":"http:\/\/hvo.flickfusion.net\/audio\/options\/options_fe_audio_file_55.mp3","option_saftey":1},{"option_str":"Traction Control","option_file":"http:\/\/hvo.flickfusion.net\/audio\/options\/options_fe_audio_file_18.mp3","option_saftey":2},{"option_str":"air conditioning","option_file":"http:\/\/hvo.flickfusion.net\/audio\/options\/options_fe_audio_file_1419.mp3","option_saftey":1},{"option_str":"Dual Air Bags","option_file":"http:\/\/hvo.flickfusion.net\/audio\/options\/options_fe_audio_file_154.mp3","option_saftey":2},{"option_str":"Power Steering","option_file":"http:\/\/hvo.flickfusion.net\/audio\/options\/options_fe_audio_file_244.mp3","option_saftey":1},{"option_str":"4-Wheel Disc Brakes","option_file":"http:\/\/hvo.flickfusion.net\/audio\/options\/options_fe_audio_file_63.mp3","option_saftey":1},{"option_str":"Rear Window Defroster","option_file":"http:\/\/hvo.flickfusion.net\/audio\/options\/options_fe_audio_file_269.mp3","option_saftey":1},{"option_str":"Power Windows","option_file":"http:\/\/hvo.flickfusion.net\/audio\/options\/options_fe_audio_file_2.mp3","option_saftey":1},{"option_str":"SECURITY SYSTEM","option_file":"http:\/\/hvo.flickfusion.net\/audio\/options\/options_fe_audio_file_996.mp3","option_saftey":1},{"option_str":"Electronic Stability Control","option_file":"http:\/\/hvo.flickfusion.net\/audio\/options\/options_fe_audio_file_162.mp3","option_saftey":1},{"option_str":"TACHOMETER","option_file":"http:\/\/hvo.flickfusion.net\/audio\/options\/options_fe_audio_file_299.mp3","option_saftey":1},{"option_str":"Brake Assist","option_file":"http:\/\/hvo.flickfusion.net\/audio\/options\/options_fe_audio_file_104.mp3","option_saftey":1},{"option_str":"Remote Keyless Entry","option_file":"http:\/\/hvo.flickfusion.net\/audio\/options\/options_fe_audio_file_273.mp3","option_saftey":1},{"option_str":"Panic alarm","option_file":"http:\/\/hvo.flickfusion.net\/audio\/options\/options_fe_audio_file_966.mp3","option_saftey":1},{"option_str":"Driver Vanity Mirror","option_file":"http:\/\/hvo.flickfusion.net\/audio\/options\/options_fe_audio_file_152.mp3","option_saftey":1},{"option_str":"Front Reading Lamps","option_file":"http:\/\/hvo.flickfusion.net\/audio\/options\/options_fe_audio_file_178.mp3","option_saftey":1},{"option_str":"Passenger Vanity Mirror","option_file":"http:\/\/hvo.flickfusion.net\/audio\/options\/options_fe_audio_file_233.mp3","option_saftey":1},{"option_str":"SPEED CONTROL","option_file":"http:\/\/hvo.flickfusion.net\/audio\/options\/options_fe_audio_file_375.mp3","option_saftey":1},{"option_str":"Rear Spoiler","option_file":"http:\/\/hvo.flickfusion.net\/audio\/options\/options_fe_audio_file_10.mp3","option_saftey":1},{"option_str":" 4-PIECE FLOOR MAT SET ","option_file":"http:\/\/hvo.flickfusion.net\/audio\/options\/options_fe_audio_file_357.mp3","option_saftey":1},{"option_str":"LOW TIRE PRESSURE WARNING","option_file":"http:\/\/hvo.flickfusion.net\/audio\/options\/options_fe_audio_file_689.mp3","option_saftey":1},{"option_str":"* Safety Options Intro","option_file":"http:\/\/hvo.flickfusion.net\/audio\/options\/options_fe_audio_file_19.mp3","option_saftey":2},{"option_str":"RADIO DATA SYSTEM","option_file":"http:\/\/hvo.flickfusion.net\/audio\/options\/options_fe_audio_file_692.mp3","option_saftey":1},{"option_str":"ILLUMINATED ENTRY","option_file":"","option_saftey":1},{"option_str":"LEATHER SHIFT KNOB","option_file":"http:\/\/hvo.flickfusion.net\/audio\/options\/options_fe_audio_file_688.mp3","option_saftey":1},{"option_str":" 4-PIECE FLOOR MAT SET ","option_file":"http:\/\/hvo.flickfusion.net\/audio\/options\/options_fe_audio_file_357.mp3","option_saftey":1}],"yearFile":"http:\/\/hvo.flickfusion.net\/audio\/year\/year_fe_audio_file_56.mp3","makeFile":"http:\/\/hvo.flickfusion.net\/audio\/makes\/make_name_fe_audio_file_49.mp3","modelFile":"http:\/\/hvo.flickfusion.net\/audio\/mdlnames\/model_name_fe_audio_file_203.mp3","modelHighlightFile":"http:\/\/hvo.flickfusion.net\/audio\/models\/model_fe_audio_file_203.mp3","styleFile":"","bodytypeFile":"","transFile":"http:\/\/hvo.flickfusion.net\/audio\/domain_transmission\/transmission_fe_audio_file_4.mp3","engineFile":"","cylindersFile":"http:\/\/hvo.flickfusion.net\/audio\/domain_cylinders\/cylinder_fe_audio_file_4.mp3","driveTrainFile":"http:\/\/hvo.flickfusion.net\/audio\/domain_drivetrain\/drivetrain_fe_audio_file_1.mp3","priceFile":"","mileageFile":"http:\/\/hvo.flickfusion.net\/audio\/mileage\/miles_fe_audio_file_5.mp3","carfaxFile":"","emotionalFile":"http:\/\/hvo.flickfusion.net\/audio\/emotional\/emotional_fe_audio_file_2.mp3","introEmotionalFile":"http:\/\/hvo.flickfusion.net\/audio\/emotional\/ie_fe_audio_file_24.mp3","scriptFile":"http:\/\/hvo.flickfusion.net\/audio\/domain_scripts\/script_fe_audio_file_21.mp3","statusCode":"1","statusMessage":"Audio Files Sent"}
22:07:13 - /var/www/html/clients/5956/audio/F234E6C5-C253-3186-B811-C421921D8361.wav
22:07:13 - ================Process HVO SOAP CALL CMD=========== 
 /usr/bin/sox
 STATUS CODE 
 1
22:07:13 - /var/app/video_pre_processor/assets/hvo/ie_fe_audio_file_24.wav PlayTime:1.75
22:07:13 - /var/app/video_pre_processor/assets/hvo/year_fe_audio_file_56.wav PlayTime:1.85
22:07:13 - /var/app/video_pre_processor/assets/hvo/model_name_fe_audio_file_203.wav PlayTime:0.78
22:07:13 - /var/app/video_pre_processor/assets/hvo/model_fe_audio_file_203.wav PlayTime:4.96
22:07:13 - Skipping VTT for BODY - bodytypeFile
22:07:13 - Skipping VTT for PRICE - priceFile
22:07:13 - KM Check : 19861 | 0
22:07:13 - /var/app/video_pre_processor/assets/hvo/miles_fe_audio_file_5.wav PlayTime:2.87
22:07:13 - Curl Response - {"exterior":["Power Door Mirrors","Abs Brakes","Headlights, Automatic High Beam Dimmer","Heated Mirrors","Rear Spoiler","Power Mirrors","4-wheel Independent Suspension","Brake Assist","Abs Brakes (rear Only)","Remote Keyless Entry","4-wheel Disc Brakes","Integrated Turn Signal Mirrors","Speed Control","Anti-roll Bars","Outside Temperature Gauge","Auto Headlight On\/off","Body-color Bumpers","Headlights-auto-off","Electronic Stability Control","Traction Control","Rear Window Defroster"],"interior":["Illuminated Entry","Automatic Temperature Control","Rear Seat Center Armrest","Knee Airbag","6 Speakers","Apple Carplay\/android Auto","Emergency Communication System: Safety Connect With 1-year Trial","Dual Front Side Impact Airbags","Occupant Sensing Airbag","Back-up Camera","Smart Device Integration","Sirius Satellite Radio","Audio System, 6 Speakers","Steering Wheel Audio Controls","Security System","Automatic Climate Control","Rear Seats, Center Armrest","Multi-function Remote, Keyless\/illuminated Entry","Power Windows","Power Steering","Airbags - Passenger - Occupant Sensing Deactivation","Leather Shift Knob","Telescopic Steering Wheel","Panic Alarm","Passenger Vanity Mirror","Door Pockets","Driver Vanity Mirror","Rear Side Airbags","Dual Front Air Bags","A\/c","Low Tire Pressure Warning","Radio Data System","Tachometer","Front Reading Lamps"]}
22:07:13 - ============={"exterior":["Power Door Mirrors","Abs Brakes","Headlights, Automatic High Beam Dimmer","Heated Mirrors","Rear Spoiler","Power Mirrors","4-wheel Independent Suspension","Brake Assist","Abs Brakes (rear Only)","Remote Keyless Entry","4-wheel Disc Brakes","Integrated Turn Signal Mirrors","Speed Control","Anti-roll Bars","Outside Temperature Gauge","Auto Headlight On\/off","Body-color Bumpers","Headlights-auto-off","Electronic Stability Control","Traction Control","Rear Window Defroster"],"interior":["Illuminated Entry","Automatic Temperature Control","Rear Seat Center Armrest","Knee Airbag","6 Speakers","Apple Carplay\/android Auto","Emergency Communication System: Safety Connect With 1-year Trial","Dual Front Side Impact Airbags","Occupant Sensing Airbag","Back-up Camera","Smart Device Integration","Sirius Satellite Radio","Audio System, 6 Speakers","Steering Wheel Audio Controls","Security System","Automatic Climate Control","Rear Seats, Center Armrest","Multi-function Remote, Keyless\/illuminated Entry","Power Windows","Power Steering","Airbags - Passenger - Occupant Sensing Deactivation","Leather Shift Knob","Telescopic Steering Wheel","Panic Alarm","Passenger Vanity Mirror","Door Pockets","Driver Vanity Mirror","Rear Side Airbags","Dual Front Air Bags","A\/c","Low Tire Pressure Warning","Radio Data System","Tachometer","Front Reading Lamps"]}===============
22:07:13 - /var/app/video_pre_processor/assets/hvo/options_fe_audio_file_55.wav PlayTime:2.35
22:07:13 - /var/app/video_pre_processor/assets/hvo/options_fe_audio_file_10.wav PlayTime:1.1
22:07:13 - /var/app/video_pre_processor/assets/hvo/options_fe_audio_file_104.wav PlayTime:1.12
22:07:13 - /var/app/video_pre_processor/assets/hvo/options_fe_audio_file_273.wav PlayTime:1.7
22:07:13 - /var/app/video_pre_processor/assets/hvo/options_fe_audio_file_63.wav PlayTime:1.57
22:07:13 - /var/app/video_pre_processor/assets/hvo/options_fe_audio_file_375.wav PlayTime:1.25
22:07:13 - /var/app/video_pre_processor/assets/hvo/options_fe_audio_file_162.wav PlayTime:1.88
22:07:13 - /var/app/video_pre_processor/assets/hvo/options_fe_audio_file_18.wav PlayTime:1.31
22:07:13 - /var/app/video_pre_processor/assets/hvo/options_fe_audio_file_269.wav PlayTime:1.52
22:07:13 - Skipping VTT for OPTIONS - ALL_OPTIONS
22:07:13 - /var/app/video_pre_processor/assets/hvo/options_fe_audio_file_996.wav PlayTime:1.25
22:07:13 - ======= ALL Options  ========== 
null
22:07:13 - /var/www/html/clients/5956/audio/F234E6C5-C253-3186-B811-C421921D8361_option.wav
22:07:13 - /usr/bin/sox /var/app/video_pre_processor/assets/hvo/options_fe_audio_file_55.wav /var/app/video_pre_processor/assets/hvo/options_fe_audio_file_10.wav /var/app/video_pre_processor/assets/hvo/options_fe_audio_file_104.wav /var/app/video_pre_processor/assets/hvo/options_fe_audio_file_273.wav /var/app/video_pre_processor/assets/hvo/options_fe_audio_file_63.wav /var/app/video_pre_processor/assets/hvo/options_fe_audio_file_375.wav /var/app/video_pre_processor/assets/hvo/options_fe_audio_file_162.wav /var/app/video_pre_processor/assets/hvo/options_fe_audio_file_18.wav /var/app/video_pre_processor/assets/hvo/options_fe_audio_file_269.wav /var/app/video_pre_processor/assets/hvo/options_fe_audio_file_996.wav /var/www/html/clients/5956/audio/F234E6C5-C253-3186-B811-C421921D8361_option.wav
22:07:13 - /var/www/html/clients/5956/audio/F234E6C5-C253-3186-B811-C421921D8361_option.wav PlayTime:15.05
22:07:13 - Skipping VTT for CARFAX - carfaxFile
22:07:13 - /var/app/video_pre_processor/assets/hvo/emotional_fe_audio_file_2.wav PlayTime:1.93
22:07:13 - /usr/bin/sox /var/app/video_pre_processor/assets/hvo/ie_fe_audio_file_24.wav /var/app/video_pre_processor/assets/hvo/year_fe_audio_file_56.wav /var/app/video_pre_processor/assets/hvo/model_name_fe_audio_file_203.wav /var/app/video_pre_processor/assets/hvo/model_fe_audio_file_203.wav /var/app/video_pre_processor/assets/hvo/miles_fe_audio_file_5.wav /var/www/html/clients/5956/audio/F234E6C5-C253-3186-B811-C421921D8361_option.wav /var/app/video_pre_processor/assets/hvo/emotional_fe_audio_file_2.wav /var/www/html/clients/5956/audio/F234E6C5-C253-3186-B811-C421921D8361_temp1.wav
22:07:13 - Return from CheckProfileVal function::0 - REPLACE_FULL_AUDIO - 
22:07:13 - Return from CheckProfileVal function::0 - REPLACE_FULL_AUDIO_NEW - 
22:07:13 - ========REPALCE AUDIO TRACK LISTING TYPE used \ n USED VALUE : 0 NEW AUDIO VALUE : { 0} ==============

22:07:13 - Video Length for audio merge: 0
22:07:13 - /root/bin/ffmpeg  -i /var/www/html/clients/5956/audio/F234E6C5-C253-3186-B811-C421921D8361.wav -f mp3 -ar 44100 -ab 320 -ac 2 -y /var/www/html/clients/5956/audio/F234E6C5-C253-3186-B811-C421921D8361.mp3
ffmpeg version N-109053-g9b13078c6a Copyright (c) 2000-2022 the FFmpeg developers
  built with gcc 5.4.0 (GCC)
  configuration: --prefix=/root/ffmpeg_build --pkg-config-flags=--static --extra-cflags=-I/root/ffmpeg_build/include --extra-ldflags=-L/root/ffmpeg_build/lib --extra-libs=-lpthread --extra-libs=-lm --bindir=/root/bin --enable-gpl --enable-libfdk_aac --enable-libfreetype --enable-libmp3lame --enable-libopus --enable-libvpx --enable-libx264 --enable-openssl --enable-libx265 --enable-nonfree --enable-libvidstab
  libavutil      57. 42.100 / 57. 42.100
  libavcodec     59. 52.101 / 59. 52.101
  libavformat    59. 34.101 / 59. 34.101
  libavdevice    59.  8.101 / 59.  8.101
  libavfilter     8. 50.100 /  8. 50.100
  libswscale      6.  8.112 /  6.  8.112
  libswresample   4.  9.100 /  4.  9.100
  libpostproc    56.  7.100 / 56.  7.100
Guessed Channel Layout for Input Stream #0.0 : stereo
Input #0, wav, from '/var/www/html/clients/5956/audio/F234E6C5-C253-3186-B811-C421921D8361.wav':
  Duration: 00:00:29.20, bitrate: 1411 kb/s
  Stream #0:0: Audio: pcm_s16le ([1][0][0][0] / 0x0001), 44100 Hz, 2 channels, s16, 1411 kb/s
Stream mapping:
  Stream #0:0 -> #0:0 (pcm_s16le (native) -> mp3 (libmp3lame))
Press [q] to stop, [?] for help
[libmp3lame @ 0x35ae480] Bitrate 320 is extremely low, maybe you mean 320k
The bitrate parameter is set too low. It takes bits/s as argument, not kbits/s
Output #0, mp3, to '/var/www/html/clients/5956/audio/F234E6C5-C253-3186-B811-C421921D8361.mp3':
  Metadata:
    TSSE            : Lavf59.34.101
  Stream #0:0: Audio: mp3, 44100 Hz, stereo, s16p, 0 kb/s
    Metadata:
      encoder         : Lavc59.52.101 libmp3lame
size=       0kB time=-577014:32:22.77 bitrate=  -0.0kbits/s speed=N/A    
size=      98kB time=00:00:06.24 bitrate= 128.3kbits/s speed=12.5x    
size=     209kB time=00:00:13.37 bitrate= 128.1kbits/s speed=13.4x    
size=     256kB time=00:00:19.82 bitrate= 105.8kbits/s speed=13.2x    
size=     256kB time=00:00:26.67 bitrate=  78.6kbits/s speed=13.3x    
size=     457kB time=00:00:29.17 bitrate= 128.3kbits/s speed=13.3x    
video:0kB audio:457kB subtitle:0kB other streams:0kB global headers:0kB muxing overhead: 0.054095%
22:07:16 - /var/app/video_pre_processor/assets/vidbot/_files/audio/HipHop.mp3 PlayTime:0
22:07:16 - Using bgmusic.mp3 - /var/app/video_pre_processor/assets/vidbot/_files/audio/HipHop.mp3
22:07:16 - BG MUSIC FILE /var/app/video_pre_processor/assets/vidbot/_files/audio/bgmusic.mp3 

22:07:16 - BG AUDIO CLIENT OVELAY VALUE : 2 

22:07:16 - /var/www/html/clients/5956/audio/F234E6C5-C253-3186-B811-C421921D8361.wav PlayTime:29.2
22:07:16 - VParent - VOLEN:31.2 | /var/www/html/clients/5956/audio/F234E6C5-C253-3186-B811-C421921D8361.mp3 | /var/app/video_pre_processor/assets/vidbot/_files/audio/bgmusic.mp3 | /var/www/html/clients/5956/audio/F234E6C5-C253-3186-B811-C421921D8361.wav
22:07:16 - AUDIO PROCESS RETURN VALUE: - 1
22:07:16 - update message_remote_queue set video_process_start = '2024-06-24 22:07:16' where queue_id = 306805
22:07:16 - CLIENT INFO DATA 
{"client_id":"5956","client_fk":"504C4200-3C75-E438-B3B0-B44F2CED3A34","client_acc_id":"3","client_name":"Toyota Direct","client_desc":"Toyota Direct","client_color":"00DBDB","client_player_color":"","client_textcolor":"","client_tts_text":"","client_tts_options":"","client_inactive":"0","client_createdate":"2016-08-05 14:02:46","client_enddate":"","client_update":"2023-12-07 08:27:30","client_email_forward":"","client_dealer_id":"2182142","client_franchise_number":"","client_salesperson_name":"Internet Sales","client_address":"4248 Morse Road","client_city":"Columbus","client_state":"OH","client_zip":"43230","client_phone":"888-279-1570","client_url":"http:\/\/www.toyotadirect.com","client_fb_id":"0","client_km":"0","client_special_price":"0","client_demo":"0","client_utube_flag":"1","client_cvo":"0","client_tts":"0","client_live_uv":"1","client_live_overlay":"2","client_av":"0","client_gv":"0","client_af":"0","client_video_email":"0","client_carfax":"0","client_intro":"0","client_outro":"1","client_slider":"0","client_music_id":"10","client_ei":"0","client_tts_vm":"2","client_hvo":"1","client_mobile":"0","client_portal":"0","client_instavid":"0","client_new_stock_video":"0","client_vidmagnet":"0","client_auto_play":"1","client_cpo":"1","client_vid_stab":"0","client_vp":"0","client_xl":"1","client_carstory":"0","client_360_player":"0","client_ece":"0","client_capture_video":"0","client_new_cvo":"0","client_pip":"1","client_account_id":"1","client_crm_email":"","client_crm_dealer_id":"","client_crm_dealer_key":"","client_archive":"0","client_damage_photo":"0","client_package":"5","client_video_size":"HDXLARGE","client_video_style":"FULL","client_lat_lng":"","client_comments":"","ftp_extract_images":"0","OUTRO_AUDIO":"YES","VIDEO_SIZE":"HD-XLARGE","SHOW_CARSTORY":"0"}
22:07:16 - Map Exists: /var/www/html/clients/5956/library/map.jpg
22:07:16 - /var/www/html/clients/5956/library/outro.mp4 PlayTime:5.69
22:07:16 - /var/www/html/clients/5956/library/960_outro.mp4 PlayTime:5.69
22:07:16 - Checking CUSTOM_INTRO
22:07:16 - Checking CUSTOM_OUTRO
22:07:16 - ================CREATE VIDEO START =========== 

22:07:16 - ================VIDEO JSON GEN START ==============
22:07:16 - Video Size 540
22:07:16 - ===========Video Theme font ================Dinot
22:07:16 - ==========Video fk : ==============F234E6C5-C253-3186-B811-C421921D8361
22:07:16 - ==============AUDIO VIDEO CONFIG : =========={"BG_MUSIC":"HipHop","THEME_BG_COLOR":"ffffff","THEME_ACCENTS_COLOR":"047ec1","THEME_FONT_COLOR":"000000","THEME_FONT":"Dinot","THEME_STYLE":"Ren","BG_VOL_LEVEL":"0.25","AUDIO_VO":"VO","VIDEO_SIZE":"HD-XLARGE","CUSTOM_INTRO":"","CUSTOM_OUTRO":"","THEME_KEY":"3_0_Auto_Default_0_ALL","THEME_RANK":"2","THEME_CONFIG":"RESELLER_CONFIG","DISABLE_PRICE":"YES","DISPLAY_INFO":"NO","DISPLAY_MAP":"NO","DISPLAY_MILEAGE":"NO","DISPLAY_OPTIONS":"NO","DISPLAY_PRICE":"NO","OUTRO_AUDIO":"YES","OLD_BG_STYLE":"0"}
22:07:16 - CLIENT FKEY :  504C4200-3C75-E438-B3B0-B44F2CED3A34  VIDEO FKEY :  F234E6C5-C253-3186-B811-C421921D8361  VEHICLE FKEY :   
22:07:16 - INFO:: Video Type:SS Video Size:540 
22:07:16 - Return from CheckProfileVal function::0 - DISPLAY_MILEAGE - NO
22:07:16 - Return from CheckProfileVal function::1 - DISPLAY_MILEAGE - NO
22:07:16 - ==================ClipsGen START  =====================

22:07:16 - Return from CheckProfileVal function::0 - AUDIO_VO - NO_VO
22:07:16 - Return from CheckProfileVal function::0 - AUDIO_VO - NO_VO
22:07:16 - Return from CheckProfileVal function::0 - AUDIO_VO - LIVE_VO
22:07:16 - Return from CheckProfileVal function::0 - AUDIO_VO - LIVE_VO
22:07:16 - Return from CheckProfileVal function::0 - DISPLAY_OPTIONS - NO
22:07:16 - Return from CheckProfileVal function::1 - DISPLAY_OPTIONS - NO
22:07:16 - Return from CheckProfileVal function::0 - DISPLAY_PRICE - NO
22:07:16 - Return from CheckProfileVal function::1 - DISPLAY_PRICE - NO
22:07:16 - Return from CheckProfileVal function::0 - DISPLAY_MILEAGE - NO
22:07:16 - Return from CheckProfileVal function::1 - DISPLAY_MILEAGE - NO
22:07:16 - Return from CheckProfileVal function::0 - DISPLAY_INFO - NO
22:07:16 - Return from CheckProfileVal function::1 - DISPLAY_INFO - NO
22:07:16 - Return from CheckProfileVal function::0 - DISPLAY_TITLE_WSNAME - NO
22:07:16 - Return from CheckProfileVal function::0 - DISPLAY_TITLE_WSNAME - NO
22:07:16 - Return from CheckProfileVal function::0 - DISPLAY_ALL_OVERLAYS - NO
22:07:16 - Return from CheckProfileVal function::0 - DISPLAY_ALL_OVERLAYS - NO
22:07:16 - Return from CheckProfileVal function::0 - DISPLAY_MAP - NO
22:07:16 - Return from CheckProfileVal function::1 - DISPLAY_MAP - NO
22:07:16 - =========THEME STYLE-FONT :Ren - Din  ============
22:07:16 - /var/app/video_pre_processor/assets/vidbot/_files/audio/bgmusic.mp3 PlayTime:957.94
22:07:16 - Return from CheckProfileVal function::0 - BG_MUSIC_OVER_ALL_CLIPS - YES
22:07:16 - Return from CheckProfileVal function::0 - BG_MUSIC_OVER_ALL_CLIPS - YES
22:07:16 - AUDIO TIMER: 
{"INTRO":0,"YEAR":1.75,"MODEL":3.6,"HIGH":4.38,"MILE":9.34,"ALL_OPTIONS":{"* General Options Intro":12.21,"Rear Spoiler":14.56,"Brake Assist":15.66,"Remote Keyless Entry":16.78,"4-wheel Disc Brakes":18.48,"Speed Control":20.05,"Electronic Stability Control":21.3,"Traction Control":23.18,"Rear Window Defroster":24.49,"Security System":26.009999999999998},"OPTIONS":14.21,"OPTIONS_AUD_LENGTH":15.05,"ENDFILE":27.259999999999998}
22:07:16 - ===================ClipsGen END  ======================== 

22:07:16 - INFO:: VIDEO JSON : "F234E6C5-C253-3186-B811-C421921D8361.json"
22:07:16 - node /var/app/Vidbot-V2/dist/vidbot.js --input /var/www/html/clients/5956/video/F234E6C5-C253-3186-B811-C421921D8361.json --log debug > /var/www/html/clients/5956/video/F234E6C5-C253-3186-B811-C421921D8361.log