21:21:19 - Return from CheckProfileVal function::0 - DISPLAY_MILEAGE - NO
21:21:19 - Return from CheckProfileVal function::0 - DISPLAY_INFO - NO
21:21:19 - Return from CheckProfileVal function::0 - DISPLAY_INFO - NO
21:21:19 - Return from CheckProfileVal function::0 - DISPLAY_TITLE_WSNAME - NO
21:21:19 - Return from CheckProfileVal function::0 - DISPLAY_TITLE_WSNAME - NO
21:21:19 - Return from CheckProfileVal function::0 - DISPLAY_ALL_OVERLAYS - NO
21:21:19 - Return from CheckProfileVal function::0 - DISPLAY_ALL_OVERLAYS - NO
21:21:19 - Return from CheckProfileVal function::0 - DISPLAY_MAP - NO
21:21:19 - Return from CheckProfileVal function::0 - DISPLAY_MAP - NO
21:21:19 - =========THEME STYLE-FONT :Ren - Din  ============
21:21:19 - /usr/bin/sox  /var/app/video_pre_processor/assets/music/silence_3.wav /var/www/html/clients/107758/audio/BE5C8AF6-8B7E-8E5F-7DD4-8119779E6F53.wav /var/www/html/clients/107758/audio/BE5C8AF6-8B7E-8E5F-7DD4-8119779E6F53_info_audio.wav
21:21:19 - /var/app/video_pre_processor/assets/vidbot/_files/audio/Groove-4.mp3 PlayTime:201.98
21:21:19 - Return from CheckProfileVal function::0 - BG_MUSIC_OVER_ALL_CLIPS - YES
21:21:19 - Return from CheckProfileVal function::0 - BG_MUSIC_OVER_ALL_CLIPS - YES
21:21:19 - AUDIO TIMER: 
{"INTRO":0,"YEAR":1.93,"MODEL":3.63,"HIGH":4.859999999999999,"PRICE":13.479999999999999,"ALL_OPTIONS":{"* General Options Intro":16.299999999999997,"Back-Up Camera":18.65,"Keyless Entry":19.93,"All Wheel Drive":21.16,"Power Liftgate":22.34,"Power Passenger Seat":23.54,"Steering wheel audio controls":24.869999999999997,"ANTI-LOCK BRAKING SYSTEM":27.04,"LED Headlights":28.74,"Traction Control":30.299999999999997,"Heated Seats":31.609999999999996},"OPTIONS":18.299999999999997,"OPTIONS_AUD_LENGTH":16.27,"ENDFILE":32.58}
21:21:19 - ===================ClipsGen END  ======================== 

21:21:19 - INFO:: VIDEO JSON : "BE5C8AF6-8B7E-8E5F-7DD4-8119779E6F53.json"
21:21:19 - node /var/app/Vidbot-V2/dist/vidbot.js --input /var/www/html/clients/107758/video/BE5C8AF6-8B7E-8E5F-7DD4-8119779E6F53.json --log debug > /var/www/html/clients/107758/video/BE5C8AF6-8B7E-8E5F-7DD4-8119779E6F53.log
21:27:28 - Generated Video File./var/www/html/clients/107758/video/BE5C8AF6-8B7E-8E5F-7DD4-8119779E6F53.mp4
21:27:28 - INFO:: Generated Video File./var/www/html/clients/107758/video/BE5C8AF6-8B7E-8E5F-7DD4-8119779E6F53.mp4
21:27:28 - INFO:: Sprite & Bookmark Option(s) not enabled
21:27:28 - ================VIDEO JSON GEN END RETURN VALUE : 1 ============== 
21:27:28 - ================CREATE VIDEO END =========== 
 ERROR : { 0}
21:27:28 - Start Time:0
21:27:28 - 0##1.93##We are pleased to show you
21:27:28 - 1.93##3.63##The 2025
21:27:28 - 3.63##4.86##CR-V
21:27:28 - 4.86##13.48##CR-V a Top Recommended vehicle because of its car-like driving manners good value cool technology and comfy interior.
21:27:28 - 13.48##16.3##and it is priced below $40000
21:27:28 - Replacing VTT String * General Options Intro to Here are some of this Vehicle's great options
21:27:28 - 16.3##18.65##Here are some of this Vehicle's great options
21:27:28 - 18.65##19.93##Back-Up Camera
21:27:28 - 19.93##21.16##Keyless Entry
21:27:28 - 21.16##22.34##All Wheel Drive
21:27:28 - 22.34##23.54##Power Liftgate
21:27:28 - 23.54##24.87##Power Passenger Seat
21:27:28 - 24.87##27.04##Steering wheel audio controls
21:27:28 - 27.04##28.74##ANTI-LOCK BRAKING SYSTEM
21:27:28 - 28.74##30.3##LED Headlights
21:27:28 - 30.3##31.61##Traction Control
21:27:28 - 31.61##32.58##Heated Seats
21:27:28 - 32.58##37.57##Is love at first sight really possible?  Let us know when you stop in
21:27:28 - Curl Response - {"error":"Video key not found [BE5C8AF6-8B7E-8E5F-7DD4-8119779E6F53]"}
21:27:28 - Contents - /postVTTString/ -  - 
0##1.93##We are pleased to show you|||1.93##3.63##The 2025|||3.63##4.86##CR-V|||4.86##13.48##CR-V a Top Recommended vehicle because of its car-like driving manners good value cool technology and comfy interior.|||13.48##16.3##and it is priced below $40000|||16.3##18.65##Here are some of this Vehicle's great options|||18.65##19.93##Back-Up Camera|||19.93##21.16##Keyless Entry|||21.16##22.34##All Wheel Drive|||22.34##23.54##Power Liftgate|||23.54##24.87##Power Passenger Seat|||24.87##27.04##Steering wheel audio controls|||27.04##28.74##ANTI-LOCK BRAKING SYSTEM|||28.74##30.3##LED Headlights|||30.3##31.61##Traction Control|||31.61##32.58##Heated Seats|||32.58##37.57##Is love at first sight really possible?  Let us know when you stop in
21:27:28 - VIDEO JSON GEN RETURN VALUE: - 0
21:27:28 - update message_remote_queue set error=0, video = 1, error_message = concat( "", error_message ), process_start = '2024-06-24 21:21:15', audio_process_start = '2024-06-24 21:21:15', audio_process_end = '2024-06-24 21:21:19', video_process_start ='2024-06-24 21:21:19', video_process_end='2024-06-24 21:27:28' where queue_id = 306719
21:27:28 - ==31 - 1 Elapsed Time 373.52 ==

21:27:28 - update queue_status set stat_last_update=NOW(), type_cnt = 31, type_loop_cnt = 260 where type_val = 'V16'
21:27:28 - Curl Response - {"code":200,"status":"Success:PostServerProcessDetails Posted For IP [209.59.156.167] and Process [V16]"}
21:27:28 - Contents - /postServerProcessDetails/ - Success:PostServerProcessDetails Posted For IP [209.59.156.167] and Process [V16] - 200
21:27:28 - update queue_status set stat_last_update=NOW(), type_cnt = 31, type_loop_cnt = 260 where type_val = 'V16'
21:27:29 - Curl Response - {"code":200,"status":"Success:PostServerProcessDetails Posted For IP [209.59.156.167] and Process [V16]"}
21:27:29 - Contents - /postServerProcessDetails/ - Success:PostServerProcessDetails Posted For IP [209.59.156.167] and Process [V16] - 200
21:27:29 - ========== 31  - 190 mins 369.2435483871 Video Process / Start:2024-06-24 17:18:01 / Mod:15/16======
21:27:30 - Fetching  Video Jobs Mod Val : 15 Mod Limit : 16 Queue ID : 0 

21:27:30 - ========select * from message_remote_queue, hvo_data where queue_id%16 = 15 and image = 1 and video = 0 and error = 0 and hvo_queue_id = queue_id   order by high_priority_row desc, queue_id asc limit 1==================count =1
21:27:30 - Processing Auto VideoFKEY:30AF2F0E-32BF-F190-EF02-6A92A2E86D56 - QueueID:306735 
21:27:30 - CLIENT INFO  CLIENT_FK  : 18093533-F350-6BCE-E100-E49AAE7DE1D2 ,CLIENT_INFO :{"client_id":"107808","client_fk":"18093533-F350-6BCE-E100-E49AAE7DE1D2","client_rftp_id":"2254077","client_ilot_id":"3075966","client_cc_id":"11521","client_name":"Gator Chrysler Dodge Jeep","client_active":"1","client_regen":"0","client_desc":"","client_createdate":"2019-01-05 20:43:43","client_enddate":"","client_update":"2019-01-05 20:43:43","client_demo":"0","client_email_forward":"","client_salesperson_name":"","client_address":"840 S Harbor City Blvd","client_city":"Melbourne","client_state":"FL","client_zip":"32901","client_phone":"3217246611","client_url":"www.gatorchrysler.net","client_yt_uname":"","client_yt_pwd":"","client_md5":"6e3c979675c1a7ea82a567cadb3b7119","client_yt_verified":"0","client_yt_error":"0","client_video_size":"HDLARGE","client_tts_vm":"2","client_video_style":"RANDOM","client_mobile":"1","client_lat_lng":"","client_acc_id":"100000","SHOW_CARSTORY":"0"}
21:27:30 - Rest Call: /client/videoDetails/18093533-F350-6BCE-E100-E49AAE7DE1D2?video_key=30AF2F0E-32BF-F190-EF02-6A92A2E86D56
21:27:30 - Curl Response - {"vehicle_id":"24138380","vehicle_client_id":"107808","vehicle_fkey":"30AF2F0E-32BF-F190-EF02-6A92A2E86D56","vehicle_uid":"1292046061","vehicle_vin":"1C4RJGBG3RC151949","vehicle_stock":"J24172A","vehicle_year":"2024","vehicle_make":"Jeep","vehicle_model":"Grand Cherokee","vehicle_trim":"Limited","vehicle_price":"40995","vehicle_mileage":"7383","vehicle_int_color":"Global Black","vehicle_ext_color":"Bright White Clearcoat","vehicle_body_type":"Sport Utility","vehicle_listing_type":"Used","vehicle_citympg":"19","vehicle_hwympg":"26","vehicle_combmpg":"","vehicle_cylinders":"6","vehicle_engine_size":"3.6 L","vehicle_trans":"Automatic","vehicle_drivetrain":"RWD","vehicle_passengers":"0","vehicle_doors":"4","vehicle_certified":"0","vehicle_special":"0","vehicle_options":"BRIGHT WHITE CLEARCOAT,ENGINE: 3.6L V6 24V VVT UPG I W\/ESS  (STD),TRANSMISSION: 8-SPEED AUTOMATIC (850RE)  (STD),GLOBAL BLACK  CAPRI LEATHERETTE SEATS,BLACK APPEARANCE PACKAGE  -inc: Tires: 265\/50R20 A\/S Performance  Wheels: 20 x 8.5 Gloss Black Painted Aluminum  Gloss Black Exterior Accents,TIRES: 265\/50R20 A\/S PERFORMANCE,QUICK ORDER PACKAGE 22E  -inc: Engine: 3.6L V6 24V VVT UPG I w\/ESS  Transmission: 8-Speed Automatic (850RE),WHEELS: 20 X 8.5 GLOSS BLACK PAINTED ALUMINUM,Rear Wheel Drive,Power Steering,ABS,4-Wheel Disc Brakes,Brake Assist,Brake Actuated Limited Slip Differential,Aluminum Wheels,Temporary Spare Tire,Heated Mirrors,Power Mirror(s),Integrated Turn Signal Mirrors,Rear Defrost,Privacy Glass,Intermittent Wipers,Variable Speed Intermittent Wipers,Rear Spoiler,Remote Trunk Release,Power Liftgate,Power Door Locks,Daytime Running Lights,Automatic Headlights,LED Headlights,Fog Lamps,Automatic Highbeams,AM\/FM Stereo,Navigation System,Satellite Radio,Bluetooth Connection,HD Radio,Requires Subscription,Premium Sound System,MP3 Player,Steering Wheel Audio Controls,Auxiliary Audio Input,Premium Sound System,Power Driver Seat,Power Passenger Seat,Mirror Memory,Driver Adjustable Lumbar,Seat Memory,Power Driver Seat,Driver Adjustable Lumbar,Power Passenger Seat,Passenger Adjustable Lumbar,Pass-Through Rear Seat,Heated Rear Seat(s),Rear Bench Seat,Adjustable Steering Wheel,Trip Computer,Power Windows,WiFi Hotspot,Heated Steering Wheel,Keyless Entry,Power Door Locks,Keyless Start,Keyless Entry,Power Door Locks,Universal Garage Door Opener,Cruise Control,Adaptive Cruise Control,Climate Control,Multi-Zone A\/C,A\/C,Woodgrain Interior Trim,Bucket Seats,Premium Synthetic Seats,Driver Vanity Mirror,Passenger Vanity Mirror,Driver Illuminated Vanity Mirror,Passenger Illuminated Visor Mirror,Floor Mats,Mirror Memory,Seat Memory,Remote Engine Start,Keyless Start,Remote Engine Start,Smart Device Integration,Power Windows,Power Door Locks,Trip Computer,Heated Front Seat(s),Security System,Immobilizer,Traction Control,Stability Control,Traction Control,Front Side Air Bag,Telematics,Requires Subscription,Rear Parking Aid,Blind Spot Monitor,Lane Departure Warning,Lane Keeping Assist,Lane Departure Warning,Front Collision Mitigation,Rear Collision Mitigation,Tire Pressure Monitor,Driver Air Bag,Passenger Air Bag,Front Head Air Bag,Rear Head Air Bag,Passenger Air Bag Sensor,Knee Air Bag,Child Safety Locks,Back-Up Camera","vehicle_desc":"Look at this 2024 Jeep Grand Cherokee Limited. Its Automatic transmission and Regular Unleaded V-6 3.6 L\/220 engine will keep you going. This Jeep Grand Cherokee comes equipped with these options: WHEELS: 20 X 8.5 GLOSS BLACK PAINTED ALUMINUM, TRANSMISSION: 8-SPEED AUTOMATIC (850RE) (STD), TIRES: 265\/50R20 A\/S PERFORMANCE, QUICK ORDER PACKAGE 22E -inc: Engine: 3.6L V6 24V VVT UPG I w\/ESS, Transmission: 8-Speed Automatic (850RE), GLOBAL BLACK, CAPRI LEATHERETTE SEATS, ENGINE: 3.6L V6 24V VVT UPG I W\/ESS (STD), BRIGHT WHITE CLEARCOAT, BLACK APPEARANCE PACKAGE -inc: Tires: 265\/50R20 A\/S Performance, Wheels: 20 x 8.5 Gloss Black Painted Aluminum, Gloss Black Exterior Accents, Wheels: 18 x 8 Polished\/Painted Aluminum, and Voice Activated Dual Zone Front Automatic Air Conditioning w\/Front Infrared.","vehicle_img_url":"https:\/\/content.homenetiol.com\/2000150\/2065303\/640x480\/a25941650cb3407caded9f80dd09ce43.jpg,https:\/\/content.homenetiol.com\/2000150\/2065303\/640x480\/499121a42a704b20854a97785977f6ab.jpg,https:\/\/content.homenetiol.com\/2000150\/2065303\/640x480\/3f75f0a028e04be69feb1f94e852577d.jpg,https:\/\/content.homenetiol.com\/2000150\/2065303\/640x480\/1bf4059fd9d74bebaa1de31efd63b61c.jpg,https:\/\/content.homenetiol.com\/2000150\/2065303\/640x480\/900c2e5d84954c51b31653437072c5c8.jpg,https:\/\/content.homenetiol.com\/2000150\/2065303\/640x480\/2ac030fe68a7433bbd1e6ade1a760df0.jpg,https:\/\/content.homenetiol.com\/2000150\/2065303\/640x480\/85625231d00046b68e78bea4ed49cc8a.jpg,https:\/\/content.homenetiol.com\/2000150\/2065303\/640x480\/f60ddada588b4ceebba89d15e7a6e60f.jpg,https:\/\/content.homenetiol.com\/2000150\/2065303\/640x480\/3691a2dde1874c68b14a139b858c1b6d.jpg,https:\/\/content.homenetiol.com\/2000150\/2065303\/640x480\/927047c5c5364471920b816bb1be6581.jpg,https:\/\/content.homenetiol.com\/2000150\/2065303\/640x480\/9acbf5a1e21c499394f8e6827ba90359.jpg,https:\/\/content.homenetiol.com\/2000150\/2065303\/640x480\/cd734416ed9444a29cb2e2a9d7b9bdc7.jpg,https:\/\/content.homenetiol.com\/2000150\/2065303\/640x480\/4c53eb490f3f40a28843c5eb280bdcaf.jpg,https:\/\/content.homenetiol.com\/2000150\/2065303\/640x480\/52c3b31cab8745789c084ecb06612c9b.jpg,https:\/\/content.homenetiol.com\/2000150\/2065303\/640x480\/664c88ce1a8948159a59366216cf2970.jpg,https:\/\/content.homenetiol.com\/2000150\/2065303\/640x480\/07575623c5754e439a11053f8a79567c.jpg,https:\/\/content.homenetiol.com\/2000150\/2065303\/640x480\/27622b03ffd14c1c9f64aacf74f87cd4.jpg,https:\/\/content.homenetiol.com\/2000150\/2065303\/640x480\/2ae141da001b48d79c561d86e981249d.jpg,https:\/\/content.homenetiol.com\/2000150\/2065303\/640x480\/9b45118be7d74b508dff6c4e23ef0274.jpg,https:\/\/content.homenetiol.com\/2000150\/2065303\/640x480\/2b2c40745f124c0ab753f903123268a7.jpg","vehicle_overlay_time":"","vehicle_tts_text":"","vehicle_img_cnt":"","veh_more_info":"","vehicle_create_date":"2024-06-24 20:42:47","vehicle_updated_date":"","vehicle_last_update":"2024-06-24 20:42:47","vehicle_md5":"4a0b17c3974d161c80060a4fc8006aa6","vehicle_status":"N","vehicle_view_cnt":"0","vehicle_url":"","vehicle_murl":"","vehicle_https_url":"","vehicle_delete_flag":"0","vehicle_delete_time":"","yt_url":"","yt_key":"","yt_created_on":"","cf_url":"","cf_xml":""}
21:27:30 - Rest Call: /client/getAudioVideoConfig/18093533-F350-6BCE-E100-E49AAE7DE1D2?listing_type=Used&video_type=Auto&certified=0&vehicle_make=Jeep
21:27:30 - Curl Response - {"BG_MUSIC":"RF7_Rock_Country","THEME_BG_COLOR":"ffffff","THEME_ACCENTS_COLOR":"532380","THEME_FONT_COLOR":"444444","THEME_FONT":"Din","THEME_STYLE":"Ren","BG_VOL_LEVEL":"0.25","AUDIO_VO":"","VIDEO_SIZE":"VIDEO_LARGE","CUSTOM_INTRO":"","CUSTOM_OUTRO":"","THEME_KEY":"100000_0_Auto_Default_0_ALL","THEME_RANK":"2","THEME_CONFIG":"RESELLER_CONFIG","OLD_BG_STYLE":"0"}
21:27:30 - Return from CheckProfileVal function::0 - DISABLE_PRICE - YES
21:27:30 - Return from CheckProfileVal function::0 - DISABLE_MILEAGE - YES
21:27:30 - Return from CheckProfileVal function::0 - DISABLE_CARSTORY - YES
21:27:30 - Config Information for 30AF2F0E-32BF-F190-EF02-6A92A2E86D56 - Width:640 - CPO:0/0 - CF: - CS:0  - Intro: - Outro: - Ovleray: -THEME:100000_0_Auto_Default_0_ALL
21:27:30 - https://content.homenetiol.com/2000150/2065303/640x480/a25941650cb3407caded9f80dd09ce43.jpg /var/www/html/clients/107808/images/30AF2F0E-32BF-F190-EF02-6A92A2E86D56_1.jpg
21:27:30 - https://content.homenetiol.com/2000150/2065303/640x480/499121a42a704b20854a97785977f6ab.jpg /var/www/html/clients/107808/images/30AF2F0E-32BF-F190-EF02-6A92A2E86D56_2.jpg
21:27:30 - https://content.homenetiol.com/2000150/2065303/640x480/3f75f0a028e04be69feb1f94e852577d.jpg /var/www/html/clients/107808/images/30AF2F0E-32BF-F190-EF02-6A92A2E86D56_3.jpg
21:27:30 - https://content.homenetiol.com/2000150/2065303/640x480/1bf4059fd9d74bebaa1de31efd63b61c.jpg /var/www/html/clients/107808/images/30AF2F0E-32BF-F190-EF02-6A92A2E86D56_4.jpg
21:27:30 - https://content.homenetiol.com/2000150/2065303/640x480/900c2e5d84954c51b31653437072c5c8.jpg /var/www/html/clients/107808/images/30AF2F0E-32BF-F190-EF02-6A92A2E86D56_5.jpg
21:27:30 - https://content.homenetiol.com/2000150/2065303/640x480/2ac030fe68a7433bbd1e6ade1a760df0.jpg /var/www/html/clients/107808/images/30AF2F0E-32BF-F190-EF02-6A92A2E86D56_6.jpg
21:27:30 - https://content.homenetiol.com/2000150/2065303/640x480/85625231d00046b68e78bea4ed49cc8a.jpg /var/www/html/clients/107808/images/30AF2F0E-32BF-F190-EF02-6A92A2E86D56_7.jpg
21:27:30 - https://content.homenetiol.com/2000150/2065303/640x480/f60ddada588b4ceebba89d15e7a6e60f.jpg /var/www/html/clients/107808/images/30AF2F0E-32BF-F190-EF02-6A92A2E86D56_8.jpg
21:27:30 - https://content.homenetiol.com/2000150/2065303/640x480/3691a2dde1874c68b14a139b858c1b6d.jpg /var/www/html/clients/107808/images/30AF2F0E-32BF-F190-EF02-6A92A2E86D56_9.jpg
21:27:30 - https://content.homenetiol.com/2000150/2065303/640x480/927047c5c5364471920b816bb1be6581.jpg /var/www/html/clients/107808/images/30AF2F0E-32BF-F190-EF02-6A92A2E86D56_10.jpg
21:27:30 - https://content.homenetiol.com/2000150/2065303/640x480/9acbf5a1e21c499394f8e6827ba90359.jpg /var/www/html/clients/107808/images/30AF2F0E-32BF-F190-EF02-6A92A2E86D56_11.jpg
21:27:30 - https://content.homenetiol.com/2000150/2065303/640x480/cd734416ed9444a29cb2e2a9d7b9bdc7.jpg /var/www/html/clients/107808/images/30AF2F0E-32BF-F190-EF02-6A92A2E86D56_12.jpg
21:27:30 - https://content.homenetiol.com/2000150/2065303/640x480/4c53eb490f3f40a28843c5eb280bdcaf.jpg /var/www/html/clients/107808/images/30AF2F0E-32BF-F190-EF02-6A92A2E86D56_13.jpg
21:27:30 - https://content.homenetiol.com/2000150/2065303/640x480/52c3b31cab8745789c084ecb06612c9b.jpg /var/www/html/clients/107808/images/30AF2F0E-32BF-F190-EF02-6A92A2E86D56_14.jpg
21:27:30 - https://content.homenetiol.com/2000150/2065303/640x480/664c88ce1a8948159a59366216cf2970.jpg /var/www/html/clients/107808/images/30AF2F0E-32BF-F190-EF02-6A92A2E86D56_15.jpg
21:27:30 - https://content.homenetiol.com/2000150/2065303/640x480/07575623c5754e439a11053f8a79567c.jpg /var/www/html/clients/107808/images/30AF2F0E-32BF-F190-EF02-6A92A2E86D56_16.jpg
21:27:30 - https://content.homenetiol.com/2000150/2065303/640x480/27622b03ffd14c1c9f64aacf74f87cd4.jpg /var/www/html/clients/107808/images/30AF2F0E-32BF-F190-EF02-6A92A2E86D56_17.jpg
21:27:30 - https://content.homenetiol.com/2000150/2065303/640x480/2ae141da001b48d79c561d86e981249d.jpg /var/www/html/clients/107808/images/30AF2F0E-32BF-F190-EF02-6A92A2E86D56_18.jpg
21:27:30 - https://content.homenetiol.com/2000150/2065303/640x480/9b45118be7d74b508dff6c4e23ef0274.jpg /var/www/html/clients/107808/images/30AF2F0E-32BF-F190-EF02-6A92A2E86D56_19.jpg
21:27:30 - https://content.homenetiol.com/2000150/2065303/640x480/2b2c40745f124c0ab753f903123268a7.jpg /var/www/html/clients/107808/images/30AF2F0E-32BF-F190-EF02-6A92A2E86D56_20.jpg
21:27:30 - Image Count 20
21:27:30 - Setting Female English VO Constants | 0 | 0
21:27:30 - ====HVO Value:1, Audio Value:0===
21:27:30 - Return from CheckProfileVal function::0 - AUDIO_INTRO - 
21:27:30 - Return from CheckProfileVal function::0 - AUDIO_OUTRO - 
21:27:30 - ================Process HVO=========== 
 1
21:27:30 - ================CLIENT SELECT TTS VM VALUE=========== 
 2
21:27:30 - 2 - 2 - /var/app/video_pre_processor/assets/hvo/
21:27:30 - Setting Female English VO Constants | 0 | 2
21:27:30 - HVO Soap Call Method - AudoListWMIE 

21:27:30 - Getting Text For Audio Files
21:27:30 - HVO Soap Call Method - AudoListTWMIE 

21:27:30 - Getting Text For Audio Files emotionalFile 2
21:27:30 - HVO Soap Call Method - GetTTScripts 

21:27:30 - Getting Text For Audio Files introEmotionalFile 25
21:27:30 - HVO Soap Call Method - GetTTScripts 

21:27:30 - Getting Text For Audio Files scriptFile 24
21:27:31 - HVO Soap Call Method - GetTTScripts 

21:27:31 - ================TTS VM VALUE=========== 
 2
21:27:31 - ================GetVOFiles=========== 
 {"OptionFiles":[{"option_str":"* General Options Intro","option_file":"http:\/\/hvo.flickfusion.net\/audio\/options\/options_fe_audio_file_55.mp3","option_saftey":1},{"option_str":"Back-Up Camera","option_file":"http:\/\/hvo.flickfusion.net\/audio\/options\/options_fe_audio_file_337.mp3","option_saftey":1},{"option_str":"ANTI-LOCK BRAKING SYSTEM","option_file":"http:\/\/hvo.flickfusion.net\/audio\/options\/options_fe_audio_file_70.mp3","option_saftey":1},{"option_str":"Power Liftgate","option_file":"http:\/\/hvo.flickfusion.net\/audio\/options\/options_fe_audio_file_238.mp3","option_saftey":1},{"option_str":"LED Headlights","option_file":"http:\/\/hvo.flickfusion.net\/audio\/options\/options_fe_audio_file_1349.mp3","option_saftey":1},{"option_str":"Navigation System","option_file":"http:\/\/hvo.flickfusion.net\/audio\/options\/options_fe_audio_file_219.mp3","option_saftey":1},{"option_str":"Steering wheel audio controls","option_file":"http:\/\/hvo.flickfusion.net\/audio\/options\/options_fe_audio_file_296.mp3","option_saftey":1},{"option_str":"Power Passenger Seat","option_file":"http:\/\/hvo.flickfusion.net\/audio\/options\/options_fe_audio_file_242.mp3","option_saftey":1},{"option_str":"Power Passenger Seat","option_file":"http:\/\/hvo.flickfusion.net\/audio\/options\/options_fe_audio_file_242.mp3","option_saftey":1},{"option_str":"Keyless Entry","option_file":"http:\/\/hvo.flickfusion.net\/audio\/options\/options_fe_audio_file_202.mp3","option_saftey":1},{"option_str":"Remote Engine Start","option_file":"http:\/\/hvo.flickfusion.net\/audio\/options\/options_fe_audio_file_272.mp3","option_saftey":1},{"option_str":"Remote Engine Start","option_file":"http:\/\/hvo.flickfusion.net\/audio\/options\/options_fe_audio_file_272.mp3","option_saftey":1},{"option_str":"Traction Control","option_file":"http:\/\/hvo.flickfusion.net\/audio\/options\/options_fe_audio_file_18.mp3","option_saftey":2},{"option_str":"Stability Control","option_file":"http:\/\/hvo.flickfusion.net\/audio\/options\/options_fe_audio_file_17.mp3","option_saftey":2},{"option_str":"Keyless Entry","option_file":"http:\/\/hvo.flickfusion.net\/audio\/options\/options_fe_audio_file_202.mp3","option_saftey":1},{"option_str":"Traction Control","option_file":"http:\/\/hvo.flickfusion.net\/audio\/options\/options_fe_audio_file_18.mp3","option_saftey":2},{"option_str":"Lane Departure Warning","option_file":"http:\/\/hvo.flickfusion.net\/audio\/options\/options_fe_audio_file_1348.mp3","option_saftey":1},{"option_str":"Lane Departure Warning","option_file":"http:\/\/hvo.flickfusion.net\/audio\/options\/options_fe_audio_file_1348.mp3","option_saftey":1},{"option_str":"Bluetooth","option_file":"http:\/\/hvo.flickfusion.net\/audio\/options\/options_fe_audio_file_846.mp3","option_saftey":1},{"option_str":"Driver Air Bag","option_file":"http:\/\/hvo.flickfusion.net\/audio\/options\/options_fe_audio_file_148.mp3","option_saftey":1},{"option_str":"Power Steering","option_file":"http:\/\/hvo.flickfusion.net\/audio\/options\/options_fe_audio_file_244.mp3","option_saftey":1},{"option_str":"Adjustable Steering Wheel","option_file":"http:\/\/hvo.flickfusion.net\/audio\/options\/options_fe_audio_file_74.mp3","option_saftey":1},{"option_str":"Cruise Control","option_file":"http:\/\/hvo.flickfusion.net\/audio\/options\/options_fe_audio_file_134.mp3","option_saftey":1},{"option_str":"Aluminum Wheels","option_file":"http:\/\/hvo.flickfusion.net\/audio\/options\/options_fe_audio_file_83.mp3","option_saftey":1},{"option_str":"Lane Keeping Assist","option_file":"","option_saftey":1},{"option_str":"FLOOR MATS","option_file":"http:\/\/hvo.flickfusion.net\/audio\/options\/options_fe_audio_file_578.mp3","option_saftey":1},{"option_str":"Keyless Start","option_file":"http:\/\/hvo.flickfusion.net\/audio\/options\/options_fe_audio_file_203.mp3","option_saftey":1},{"option_str":"Keyless Start","option_file":"http:\/\/hvo.flickfusion.net\/audio\/options\/options_fe_audio_file_203.mp3","option_saftey":1},{"option_str":"4-Wheel Disc Brakes","option_file":"http:\/\/hvo.flickfusion.net\/audio\/options\/options_fe_audio_file_63.mp3","option_saftey":1},{"option_str":"Premium Sound System","option_file":"http:\/\/hvo.flickfusion.net\/audio\/options\/options_fe_audio_file_248.mp3","option_saftey":1},{"option_str":"Rear Defrost","option_file":"http:\/\/hvo.flickfusion.net\/audio\/options\/options_fe_audio_file_259.mp3","option_saftey":1},{"option_str":"Climate Control","option_file":"http:\/\/hvo.flickfusion.net\/audio\/options\/options_fe_audio_file_126.mp3","option_saftey":1},{"option_str":"Premium Sound System","option_file":"http:\/\/hvo.flickfusion.net\/audio\/options\/options_fe_audio_file_248.mp3","option_saftey":1},{"option_str":"AM\/FM STEREO RADIO","option_file":"http:\/\/hvo.flickfusion.net\/audio\/options\/options_fe_audio_file_69.mp3","option_saftey":1},{"option_str":"Universal Garage Door Opener","option_file":"http:\/\/hvo.flickfusion.net\/audio\/options\/options_fe_audio_file_323.mp3","option_saftey":1},{"option_str":"MP3 Player","option_file":"http:\/\/hvo.flickfusion.net\/audio\/options\/options_fe_audio_file_211.mp3","option_saftey":1},{"option_str":"Trip Computer","option_file":"http:\/\/hvo.flickfusion.net\/audio\/options\/options_fe_audio_file_321.mp3","option_saftey":1},{"option_str":"Power Windows","option_file":"http:\/\/hvo.flickfusion.net\/audio\/options\/options_fe_audio_file_2.mp3","option_saftey":1},{"option_str":"HEATED STEERING WHEEL ","option_file":"http:\/\/hvo.flickfusion.net\/audio\/options\/options_fe_audio_file_839.mp3","option_saftey":1},{"option_str":"Power Door Locks","option_file":"http:\/\/hvo.flickfusion.net\/audio\/options\/options_fe_audio_file_234.mp3","option_saftey":1},{"option_str":"Power Door Locks","option_file":"http:\/\/hvo.flickfusion.net\/audio\/options\/options_fe_audio_file_234.mp3","option_saftey":1},{"option_str":"Fog Lamps","option_file":"http:\/\/hvo.flickfusion.net\/audio\/options\/options_fe_audio_file_171.mp3","option_saftey":1},{"option_str":"Passenger Air Bag","option_file":"http:\/\/hvo.flickfusion.net\/audio\/options\/options_fe_audio_file_228.mp3","option_saftey":1},{"option_str":"SECURITY SYSTEM","option_file":"http:\/\/hvo.flickfusion.net\/audio\/options\/options_fe_audio_file_996.mp3","option_saftey":1},{"option_str":"Trip Computer","option_file":"http:\/\/hvo.flickfusion.net\/audio\/options\/options_fe_audio_file_321.mp3","option_saftey":1},{"option_str":"Bucket Seats","option_file":"http:\/\/hvo.flickfusion.net\/audio\/options\/options_fe_audio_file_107.mp3","option_saftey":1},{"option_str":"Power Door Locks","option_file":"http:\/\/hvo.flickfusion.net\/audio\/options\/options_fe_audio_file_234.mp3","option_saftey":1},{"option_str":"Power Windows","option_file":"http:\/\/hvo.flickfusion.net\/audio\/options\/options_fe_audio_file_2.mp3","option_saftey":1},{"option_str":"Child Safety Locks","option_file":"http:\/\/hvo.flickfusion.net\/audio\/options\/options_fe_audio_file_122.mp3","option_saftey":1},{"option_str":"Power Door Locks","option_file":"http:\/\/hvo.flickfusion.net\/audio\/options\/options_fe_audio_file_234.mp3","option_saftey":1},{"option_str":"A\/C","option_file":"http:\/\/hvo.flickfusion.net\/audio\/options\/options_fe_audio_file_67.mp3","option_saftey":1},{"option_str":"Satellite Radio","option_file":"http:\/\/hvo.flickfusion.net\/audio\/options\/options_fe_audio_file_279.mp3","option_saftey":1},{"option_str":"HD Radio","option_file":"http:\/\/hvo.flickfusion.net\/audio\/options\/options_fe_audio_file_452.mp3","option_saftey":1},{"option_str":"Auxiliary Audio Input","option_file":"http:\/\/hvo.flickfusion.net\/audio\/options\/options_fe_audio_file_95.mp3","option_saftey":1},{"option_str":"Seat Memory","option_file":"http:\/\/hvo.flickfusion.net\/audio\/options\/options_fe_audio_file_280.mp3","option_saftey":1},{"option_str":"Seat Memory","option_file":"http:\/\/hvo.flickfusion.net\/audio\/options\/options_fe_audio_file_280.mp3","option_saftey":1},{"option_str":"Daytime Running Lights","option_file":"http:\/\/hvo.flickfusion.net\/audio\/options\/options_fe_audio_file_142.mp3","option_saftey":1},{"option_str":"Brake Assist","option_file":"http:\/\/hvo.flickfusion.net\/audio\/options\/options_fe_audio_file_104.mp3","option_saftey":1},{"option_str":"Rear Head Air Bag","option_file":"http:\/\/hvo.flickfusion.net\/audio\/options\/options_fe_audio_file_261.mp3","option_saftey":1},{"option_str":"Power Driver Seat","option_file":"http:\/\/hvo.flickfusion.net\/audio\/options\/options_fe_audio_file_237.mp3","option_saftey":1},{"option_str":"Power Driver Seat","option_file":"http:\/\/hvo.flickfusion.net\/audio\/options\/options_fe_audio_file_237.mp3","option_saftey":1},{"option_str":"Passenger Illuminated Visor Mirror","option_file":"http:\/\/hvo.flickfusion.net\/audio\/options\/options_fe_audio_file_230.mp3","option_saftey":1},{"option_str":"Remote Trunk Release","option_file":"http:\/\/hvo.flickfusion.net\/audio\/options\/options_fe_audio_file_275.mp3","option_saftey":1},{"option_str":"Driver Illuminated Vanity Mirror","option_file":"http:\/\/hvo.flickfusion.net\/audio\/options\/options_fe_audio_file_149.mp3","option_saftey":1},{"option_str":"Driver Vanity Mirror","option_file":"http:\/\/hvo.flickfusion.net\/audio\/options\/options_fe_audio_file_152.mp3","option_saftey":1},{"option_str":"Premium Synthetic Seats","option_file":"http:\/\/hvo.flickfusion.net\/audio\/options\/options_fe_audio_file_513.mp3","option_saftey":1},{"option_str":"Rear Parking Aid","option_file":"http:\/\/hvo.flickfusion.net\/audio\/options\/options_fe_audio_file_262.mp3","option_saftey":1},{"option_str":"Privacy Glass","option_file":"http:\/\/hvo.flickfusion.net\/audio\/options\/options_fe_audio_file_249.mp3","option_saftey":1},{"option_str":"Passenger Vanity Mirror","option_file":"http:\/\/hvo.flickfusion.net\/audio\/options\/options_fe_audio_file_233.mp3","option_saftey":1},{"option_str":"Heated Mirrors","option_file":"http:\/\/hvo.flickfusion.net\/audio\/options\/options_fe_audio_file_7.mp3","option_saftey":1},{"option_str":"Integrated Turn Signal Mirrors","option_file":"http:\/\/hvo.flickfusion.net\/audio\/options\/options_fe_audio_file_198.mp3","option_saftey":1},{"option_str":"Telematics","option_file":"http:\/\/hvo.flickfusion.net\/audio\/options\/options_fe_audio_file_303.mp3","option_saftey":1},{"option_str":"Pass-Through Rear Seat","option_file":"http:\/\/hvo.flickfusion.net\/audio\/options\/options_fe_audio_file_227.mp3","option_saftey":1},{"option_str":"Mirror Memory","option_file":"http:\/\/hvo.flickfusion.net\/audio\/options\/options_fe_audio_file_214.mp3","option_saftey":1},{"option_str":"Rear Wheel Drive","option_file":"http:\/\/hvo.flickfusion.net\/audio\/options\/options_fe_audio_file_267.mp3","option_saftey":1},{"option_str":"Woodgrain Interior Trim","option_file":"http:\/\/hvo.flickfusion.net\/audio\/options\/options_fe_audio_file_335.mp3","option_saftey":1},{"option_str":"Mirror Memory","option_file":"http:\/\/hvo.flickfusion.net\/audio\/options\/options_fe_audio_file_214.mp3","option_saftey":1},{"option_str":"Rear Spoiler","option_file":"http:\/\/hvo.flickfusion.net\/audio\/options\/options_fe_audio_file_10.mp3","option_saftey":1},{"option_str":"ADAPTIVE CRUISE CONTROL  ","option_file":"http:\/\/hvo.flickfusion.net\/audio\/options\/options_fe_audio_file_874.mp3","option_saftey":1},{"option_str":"Tire Pressure Monitor","option_file":"http:\/\/hvo.flickfusion.net\/audio\/options\/options_fe_audio_file_36.mp3","option_saftey":2},{"option_str":"Variable Speed Intermittent Wipers","option_file":"http:\/\/hvo.flickfusion.net\/audio\/options\/options_fe_audio_file_325.mp3","option_saftey":1},{"option_str":"REAR BENCH SEAT","option_file":"http:\/\/hvo.flickfusion.net\/audio\/options\/options_fe_audio_file_693.mp3","option_saftey":1},{"option_str":"WiFi Hotspot","option_file":"http:\/\/hvo.flickfusion.net\/audio\/options\/options_fe_audio_file_1501.mp3","option_saftey":1},{"option_str":"Blind Spot Monitor","option_file":"http:\/\/hvo.flickfusion.net\/audio\/options\/options_fe_audio_file_1428.mp3","option_saftey":1},{"option_str":"Smart Device Integration","option_file":"http:\/\/hvo.flickfusion.net\/audio\/options\/options_fe_audio_file_1480.mp3","option_saftey":1}],"yearFile":"http:\/\/hvo.flickfusion.net\/audio\/year\/year_fe_audio_file_66.mp3","makeFile":"http:\/\/hvo.flickfusion.net\/audio\/makes\/make_name_fe_audio_file_22.mp3","modelFile":"http:\/\/hvo.flickfusion.net\/audio\/mdlnames\/model_name_fe_audio_file_165.mp3","modelHighlightFile":"http:\/\/hvo.flickfusion.net\/audio\/models\/model_fe_audio_file_165.mp3","styleFile":"","bodytypeFile":"","transFile":"http:\/\/hvo.flickfusion.net\/audio\/domain_transmission\/transmission_fe_audio_file_2.mp3","engineFile":"http:\/\/hvo.flickfusion.net\/audio\/domain_enginesize\/enginesize_fe_audio_file_28.mp3","cylindersFile":"http:\/\/hvo.flickfusion.net\/audio\/domain_cylinders\/cylinder_fe_audio_file_5.mp3","driveTrainFile":"http:\/\/hvo.flickfusion.net\/audio\/domain_drivetrain\/drivetrain_fe_audio_file_3.mp3","priceFile":"http:\/\/hvo.flickfusion.net\/audio\/prices\/price_fe_audio_file_17.mp3","mileageFile":"http:\/\/hvo.flickfusion.net\/audio\/mileage\/miles_fe_audio_file_48.mp3","carfaxFile":"","emotionalFile":"http:\/\/hvo.flickfusion.net\/audio\/emotional\/emotional_fe_audio_file_2.mp3","introEmotionalFile":"http:\/\/hvo.flickfusion.net\/audio\/emotional\/ie_fe_audio_file_25.mp3","scriptFile":"http:\/\/hvo.flickfusion.net\/audio\/domain_scripts\/script_fe_audio_file_24.mp3","statusCode":"1","statusMessage":"Audio Files Sent"}
21:27:31 - /var/www/html/clients/107808/audio/30AF2F0E-32BF-F190-EF02-6A92A2E86D56.wav
21:27:31 - ================Process HVO SOAP CALL CMD=========== 
 /usr/bin/sox
 STATUS CODE 
 1
21:27:31 - /var/app/video_pre_processor/assets/hvo/ie_fe_audio_file_25.wav PlayTime:1.93
21:27:31 - /var/app/video_pre_processor/assets/hvo/year_fe_audio_file_66.wav PlayTime:1.88
21:27:31 - /var/app/video_pre_processor/assets/hvo/model_name_fe_audio_file_165.wav PlayTime:1.2
21:27:31 - /var/app/video_pre_processor/assets/hvo/model_fe_audio_file_165.wav PlayTime:14.58
21:27:31 - Skipping VTT for BODY - bodytypeFile
21:27:31 - /var/app/video_pre_processor/assets/hvo/price_fe_audio_file_17.wav PlayTime:3.16
21:27:31 - KM Check : 7383 | 0
21:27:31 - /var/app/video_pre_processor/assets/hvo/miles_fe_audio_file_48.wav PlayTime:3.06
21:27:31 - Curl Response - {"error":"Vehicle options not found for vehicle key[30AF2F0E-32BF-F190-EF02-6A92A2E86D56]"}
21:27:31 - ============={"error":"Vehicle options not found for vehicle key[30AF2F0E-32BF-F190-EF02-6A92A2E86D56]"}===============
21:27:31 - Skipping Duplicate Option Power Passenger Seat
21:27:31 - Skipping Duplicate Option Remote Engine Start
21:27:31 - Skipping Duplicate Option Keyless Entry
21:27:31 - Skipping Duplicate Option Traction Control
21:27:31 - Skipping Duplicate Option Lane Departure Warning
21:27:31 - Skipping Duplicate Option Keyless Start
21:27:31 - Skipping Duplicate Option Premium Sound System
21:27:31 - Skipping Duplicate Option Power Door Locks
21:27:31 - Skipping Duplicate Option Trip Computer
21:27:31 - Skipping Duplicate Option Power Door Locks
21:27:31 - Skipping Duplicate Option Power Windows
21:27:31 - Skipping Duplicate Option Power Door Locks
21:27:31 - Skipping Duplicate Option Seat Memory
21:27:31 - Skipping Duplicate Option Power Driver Seat
21:27:31 - Skipping Duplicate Option Mirror Memory
21:27:31 - /var/app/video_pre_processor/assets/hvo/options_fe_audio_file_55.wav PlayTime:2.35
21:27:31 - /var/app/video_pre_processor/assets/hvo/options_fe_audio_file_337.wav PlayTime:1.28
21:27:31 - /var/app/video_pre_processor/assets/hvo/options_fe_audio_file_70.wav PlayTime:1.7
21:27:31 - /var/app/video_pre_processor/assets/hvo/options_fe_audio_file_238.wav PlayTime:1.2
21:27:31 - /var/app/video_pre_processor/assets/hvo/options_fe_audio_file_1349.wav PlayTime:1.56
21:27:31 - /var/app/video_pre_processor/assets/hvo/options_fe_audio_file_219.wav PlayTime:1.59
21:27:31 - /var/app/video_pre_processor/assets/hvo/options_fe_audio_file_296.wav PlayTime:2.17
21:27:31 - /var/app/video_pre_processor/assets/hvo/options_fe_audio_file_242.wav PlayTime:1.33
21:27:31 - /var/app/video_pre_processor/assets/hvo/options_fe_audio_file_202.wav PlayTime:1.23
21:27:31 - /var/app/video_pre_processor/assets/hvo/options_fe_audio_file_272.wav PlayTime:1.44
21:27:31 - /var/app/video_pre_processor/assets/hvo/options_fe_audio_file_18.wav PlayTime:1.31
21:27:31 - ======= ALL Options  ========== 
null
21:27:31 - /var/www/html/clients/107808/audio/30AF2F0E-32BF-F190-EF02-6A92A2E86D56_option.wav
21:27:31 - /usr/bin/sox /var/app/video_pre_processor/assets/hvo/options_fe_audio_file_55.wav /var/app/video_pre_processor/assets/hvo/options_fe_audio_file_337.wav /var/app/video_pre_processor/assets/hvo/options_fe_audio_file_70.wav /var/app/video_pre_processor/assets/hvo/options_fe_audio_file_238.wav /var/app/video_pre_processor/assets/hvo/options_fe_audio_file_1349.wav /var/app/video_pre_processor/assets/hvo/options_fe_audio_file_219.wav /var/app/video_pre_processor/assets/hvo/options_fe_audio_file_296.wav /var/app/video_pre_processor/assets/hvo/options_fe_audio_file_242.wav /var/app/video_pre_processor/assets/hvo/options_fe_audio_file_202.wav /var/app/video_pre_processor/assets/hvo/options_fe_audio_file_272.wav /var/app/video_pre_processor/assets/hvo/options_fe_audio_file_18.wav /var/www/html/clients/107808/audio/30AF2F0E-32BF-F190-EF02-6A92A2E86D56_option.wav
21:27:31 - /var/www/html/clients/107808/audio/30AF2F0E-32BF-F190-EF02-6A92A2E86D56_option.wav PlayTime:17.16
21:27:31 - Skipping VTT for CARFAX - carfaxFile
21:27:31 - /var/app/video_pre_processor/assets/hvo/emotional_fe_audio_file_2.wav PlayTime:1.93
21:27:31 - /usr/bin/sox /var/app/video_pre_processor/assets/hvo/ie_fe_audio_file_25.wav /var/app/video_pre_processor/assets/hvo/year_fe_audio_file_66.wav /var/app/video_pre_processor/assets/hvo/model_name_fe_audio_file_165.wav /var/app/video_pre_processor/assets/hvo/model_fe_audio_file_165.wav /var/app/video_pre_processor/assets/hvo/price_fe_audio_file_17.wav /var/app/video_pre_processor/assets/hvo/miles_fe_audio_file_48.wav /var/www/html/clients/107808/audio/30AF2F0E-32BF-F190-EF02-6A92A2E86D56_option.wav /var/app/video_pre_processor/assets/hvo/emotional_fe_audio_file_2.wav /var/www/html/clients/107808/audio/30AF2F0E-32BF-F190-EF02-6A92A2E86D56_temp1.wav
21:27:31 - Return from CheckProfileVal function::0 - REPLACE_FULL_AUDIO - 
21:27:31 - Return from CheckProfileVal function::0 - REPLACE_FULL_AUDIO_NEW - 
21:27:31 - ========REPALCE AUDIO TRACK LISTING TYPE used \ n USED VALUE : 0 NEW AUDIO VALUE : { 0} ==============

21:27:31 - Video Length for audio merge: 0
21:27:31 - /root/bin/ffmpeg  -i /var/www/html/clients/107808/audio/30AF2F0E-32BF-F190-EF02-6A92A2E86D56.wav -f mp3 -ar 44100 -ab 320 -ac 2 -y /var/www/html/clients/107808/audio/30AF2F0E-32BF-F190-EF02-6A92A2E86D56.mp3
ffmpeg version N-109053-g9b13078c6a Copyright (c) 2000-2022 the FFmpeg developers
  built with gcc 5.4.0 (GCC)
  configuration: --prefix=/root/ffmpeg_build --pkg-config-flags=--static --extra-cflags=-I/root/ffmpeg_build/include --extra-ldflags=-L/root/ffmpeg_build/lib --extra-libs=-lpthread --extra-libs=-lm --bindir=/root/bin --enable-gpl --enable-libfdk_aac --enable-libfreetype --enable-libmp3lame --enable-libopus --enable-libvpx --enable-libx264 --enable-openssl --enable-libx265 --enable-nonfree --enable-libvidstab
  libavutil      57. 42.100 / 57. 42.100
  libavcodec     59. 52.101 / 59. 52.101
  libavformat    59. 34.101 / 59. 34.101
  libavdevice    59.  8.101 / 59.  8.101
  libavfilter     8. 50.100 /  8. 50.100
  libswscale      6.  8.112 /  6.  8.112
  libswresample   4.  9.100 /  4.  9.100
  libpostproc    56.  7.100 / 56.  7.100
Guessed Channel Layout for Input Stream #0.0 : stereo
Input #0, wav, from '/var/www/html/clients/107808/audio/30AF2F0E-32BF-F190-EF02-6A92A2E86D56.wav':
  Duration: 00:00:44.90, bitrate: 1411 kb/s
  Stream #0:0: Audio: pcm_s16le ([1][0][0][0] / 0x0001), 44100 Hz, 2 channels, s16, 1411 kb/s
Stream mapping:
  Stream #0:0 -> #0:0 (pcm_s16le (native) -> mp3 (libmp3lame))
Press [q] to stop, [?] for help
[libmp3lame @ 0x321c480] Bitrate 320 is extremely low, maybe you mean 320k
The bitrate parameter is set too low. It takes bits/s as argument, not kbits/s
Output #0, mp3, to '/var/www/html/clients/107808/audio/30AF2F0E-32BF-F190-EF02-6A92A2E86D56.mp3':
  Metadata:
    TSSE            : Lavf59.34.101
  Stream #0:0: Audio: mp3, 44100 Hz, stereo, s16p, 0 kb/s
    Metadata:
      encoder         : Lavc59.52.101 libmp3lame
size=       0kB time=-577014:32:22.77 bitrate=  -0.0kbits/s speed=N/A    
size=     101kB time=00:00:06.47 bitrate= 128.3kbits/s speed=12.9x    
size=     194kB time=00:00:12.40 bitrate= 128.2kbits/s speed=12.4x    
size=     256kB time=00:00:18.60 bitrate= 112.7kbits/s speed=12.4x    
size=     256kB time=00:00:24.89 bitrate=  84.2kbits/s speed=12.4x    
size=     256kB time=00:00:31.21 bitrate=  67.2kbits/s speed=12.5x    
size=     512kB time=00:00:37.40 bitrate= 112.1kbits/s speed=12.4x    
size=     512kB time=00:00:43.67 bitrate=  96.0kbits/s speed=12.5x    
size=     702kB time=00:00:44.87 bitrate= 128.2kbits/s speed=12.5x    
video:0kB audio:702kB subtitle:0kB other streams:0kB global headers:0kB muxing overhead: 0.035193%
21:27:34 - /var/app/video_pre_processor/assets/vidbot/_files/audio/RF7_Rock_Country.mp3 PlayTime:312.7
21:27:34 - Using RF7_Rock_Country.mp3 - /var/app/video_pre_processor/assets/vidbot/_files/audio/RF7_Rock_Country.mp3
21:27:34 - BG MUSIC FILE /var/app/video_pre_processor/assets/vidbot/_files/audio/RF7_Rock_Country.mp3 

21:27:34 - BG AUDIO CLIENT OVELAY VALUE : 0 

21:27:34 - /var/www/html/clients/107808/audio/30AF2F0E-32BF-F190-EF02-6A92A2E86D56.wav PlayTime:44.9
21:27:34 - VParent - VOLEN:46.9 | /var/www/html/clients/107808/audio/30AF2F0E-32BF-F190-EF02-6A92A2E86D56.mp3 | /var/app/video_pre_processor/assets/vidbot/_files/audio/RF7_Rock_Country.mp3 | /var/www/html/clients/107808/audio/30AF2F0E-32BF-F190-EF02-6A92A2E86D56.wav
21:27:34 - AUDIO PROCESS RETURN VALUE: - 1
21:27:34 - update message_remote_queue set video_process_start = '2024-06-24 21:27:34' where queue_id = 306735
21:27:34 - CLIENT INFO DATA 
{"client_id":"107808","client_fk":"18093533-F350-6BCE-E100-E49AAE7DE1D2","client_rftp_id":"2254077","client_ilot_id":"3075966","client_cc_id":"11521","client_name":"Gator Chrysler Dodge Jeep","client_active":"1","client_regen":"0","client_desc":"","client_createdate":"2019-01-05 20:43:43","client_enddate":"","client_update":"2019-01-05 20:43:43","client_demo":"0","client_email_forward":"","client_salesperson_name":"","client_address":"840 S Harbor City Blvd","client_city":"Melbourne","client_state":"FL","client_zip":"32901","client_phone":"3217246611","client_url":"www.gatorchrysler.net","client_yt_uname":"","client_yt_pwd":"","client_md5":"6e3c979675c1a7ea82a567cadb3b7119","client_yt_verified":"0","client_yt_error":"0","client_video_size":"HDLARGE","client_tts_vm":"2","client_video_style":"RANDOM","client_mobile":"1","client_lat_lng":"","client_acc_id":"100000","SHOW_CARSTORY":"0"}
21:27:35 - File Downloaded http://gcsimages.storage.googleapis.com/clients/107808/library/map.jpg - /var/www/html/clients/107808/library/map.jpg - FileSize:58.81 K
21:27:35 - Map Exists: /var/www/html/clients/107808/library/map.jpg
21:27:35 - Checking CUSTOM_INTRO
21:27:35 - Checking CUSTOM_OUTRO
21:27:35 - ================CREATE VIDEO START =========== 

21:27:35 - ================VIDEO JSON GEN START ==============
21:27:35 - Video Size 360
21:27:35 - ===========Video Theme font ================Dinot
21:27:35 - ==========Video fk : ==============30AF2F0E-32BF-F190-EF02-6A92A2E86D56
21:27:35 - ==============AUDIO VIDEO CONFIG : =========={"BG_MUSIC":"RF7_Rock_Country","THEME_BG_COLOR":"ffffff","THEME_ACCENTS_COLOR":"532380","THEME_FONT_COLOR":"444444","THEME_FONT":"Dinot","THEME_STYLE":"Ren","BG_VOL_LEVEL":"0.25","AUDIO_VO":"","VIDEO_SIZE":"VIDEO_LARGE","CUSTOM_INTRO":"","CUSTOM_OUTRO":"","THEME_KEY":"100000_0_Auto_Default_0_ALL","THEME_RANK":"2","THEME_CONFIG":"RESELLER_CONFIG","OLD_BG_STYLE":"0"}
21:27:35 - CLIENT FKEY :  18093533-F350-6BCE-E100-E49AAE7DE1D2  VIDEO FKEY :  30AF2F0E-32BF-F190-EF02-6A92A2E86D56  VEHICLE FKEY :   
21:27:35 - INFO:: Video Type:SS Video Size:360 
21:27:35 - Return from CheckProfileVal function::0 - DISPLAY_MILEAGE - NO
21:27:35 - Return from CheckProfileVal function::0 - DISPLAY_MILEAGE - NO
21:27:35 - Return from CheckProfileVal function::0 - DISPLAY_PRICE - NO
21:27:35 - Return from CheckProfileVal function::0 - DISPLAY_PRICE - NO
21:27:35 - ==================ClipsGen START  =====================

21:27:35 - Return from CheckProfileVal function::0 - AUDIO_VO - NO_VO
21:27:35 - Return from CheckProfileVal function::0 - AUDIO_VO - NO_VO
21:27:35 - Return from CheckProfileVal function::0 - AUDIO_VO - LIVE_VO
21:27:35 - Return from CheckProfileVal function::0 - AUDIO_VO - LIVE_VO
21:27:35 - Return from CheckProfileVal function::0 - DISPLAY_OPTIONS - NO
21:27:35 - Return from CheckProfileVal function::0 - DISPLAY_OPTIONS - NO
21:27:35 - Return from CheckProfileVal function::0 - DISPLAY_PRICE - NO
21:27:35 - Return from CheckProfileVal function::0 - DISPLAY_PRICE - NO
21:27:35 - Return from CheckProfileVal function::0 - DISABLE_PRICE - YES
21:27:35 - Return from CheckProfileVal function::0 - DISPLAY_MILEAGE - NO
21:27:35 - Return from CheckProfileVal function::0 - DISPLAY_MILEAGE - NO
21:27:35 - Return from CheckProfileVal function::0 - DISPLAY_INFO - NO
21:27:35 - Return from CheckProfileVal function::0 - DISPLAY_INFO - NO
21:27:35 - Return from CheckProfileVal function::0 - DISPLAY_TITLE_WSNAME - NO
21:27:35 - Return from CheckProfileVal function::0 - DISPLAY_TITLE_WSNAME - NO
21:27:35 - Return from CheckProfileVal function::0 - DISPLAY_ALL_OVERLAYS - NO
21:27:35 - Return from CheckProfileVal function::0 - DISPLAY_ALL_OVERLAYS - NO
21:27:35 - Return from CheckProfileVal function::0 - DISPLAY_MAP - NO
21:27:35 - Return from CheckProfileVal function::0 - DISPLAY_MAP - NO
21:27:35 297 - ShellApp::ResizeImage - /var/www/html/clients/107808/library/map.jpg - /var/www/html/clients/107808/library/width_map_360.jpg - 640
21:27:35 - Check Height 409.6  0 - Image Type: 2
21:27:35 276 - ShellApp::CropJPEGImage - 640/325 - 409- 42 

21:27:35 - MAP : /var/www/html/clients/107808/library/map_360.jpg :  FILE SIZE : 120957
21:27:35 - =========THEME STYLE-FONT :Ren - Din  ============
21:27:35 - /usr/bin/sox  /var/app/video_pre_processor/assets/music/silence_3.wav /var/www/html/clients/107808/audio/30AF2F0E-32BF-F190-EF02-6A92A2E86D56.wav /var/www/html/clients/107808/audio/30AF2F0E-32BF-F190-EF02-6A92A2E86D56_info_audio.wav
21:27:35 - /var/app/video_pre_processor/assets/vidbot/_files/audio/RF7_Rock_Country.mp3 PlayTime:312.7
21:27:35 - Return from CheckProfileVal function::0 - BG_MUSIC_OVER_ALL_CLIPS - YES
21:27:35 - Return from CheckProfileVal function::0 - BG_MUSIC_OVER_ALL_CLIPS - YES
21:27:35 - AUDIO TIMER: 
{"INTRO":0,"YEAR":1.93,"MODEL":3.8099999999999996,"HIGH":5.01,"PRICE":19.59,"MILE":22.75,"ALL_OPTIONS":{"* General Options Intro":25.81,"Back-Up Camera":28.16,"ANTI-LOCK BRAKING SYSTEM":29.44,"Power Liftgate":31.14,"LED Headlights":32.34,"Navigation System":33.900000000000006,"Steering wheel audio controls":35.49000000000001,"Power Passenger Seat":37.66000000000001,"Keyless Entry":38.99000000000001,"Remote Engine Start":40.220000000000006,"Traction Control":41.660000000000004},"OPTIONS":27.81,"OPTIONS_AUD_LENGTH":17.16,"ENDFILE":42.970000000000006}
21:27:35 - ===================ClipsGen END  ======================== 

21:27:35 - INFO:: VIDEO JSON : "30AF2F0E-32BF-F190-EF02-6A92A2E86D56.json"
21:27:35 - node /var/app/Vidbot-V2/dist/vidbot.js --input /var/www/html/clients/107808/video/30AF2F0E-32BF-F190-EF02-6A92A2E86D56.json --log debug > /var/www/html/clients/107808/video/30AF2F0E-32BF-F190-EF02-6A92A2E86D56.log
21:33:20 - Generated Video File./var/www/html/clients/107808/video/30AF2F0E-32BF-F190-EF02-6A92A2E86D56.mp4
21:33:20 - INFO:: Generated Video File./var/www/html/clients/107808/video/30AF2F0E-32BF-F190-EF02-6A92A2E86D56.mp4
21:33:20 - INFO:: Sprite & Bookmark Option(s) not enabled
21:33:20 - ================VIDEO JSON GEN END RETURN VALUE : 1 ============== 
21:33:20 - ================CREATE VIDEO END =========== 
 ERROR : { 0}
21:33:20 - Start Time:0
21:33:20 - 0##1.93##We are pleased to show you
21:33:20 - 1.93##3.81##The 2024
21:33:20 - 3.81##5.01##Grand Cherokee
21:33:20 - 5.01##19.59##The Jeep Grand Cherokee offers superior off-road capability comparable to that of the upscale Land Rover LR3. This makes the Grand Cherokee a fine choice for families who venture off-road or vacation in the mountains or other remote areas.
21:33:20 - 19.59##22.75##and it is priced below $45000
21:33:20 - 22.75##25.81##This Vehicle has less than 8000 miles
21:33:20 - Replacing VTT String * General Options Intro to Here are some of this Vehicle's great options
21:33:20 - 25.81##28.16##Here are some of this Vehicle's great options
21:33:20 - 28.16##29.44##Back-Up Camera
21:33:20 - 29.44##31.14##ANTI-LOCK BRAKING SYSTEM
21:33:20 - 31.14##32.34##Power Liftgate
21:33:20 - 32.34##33.9##LED Headlights
21:33:20 - 33.9##35.49##Navigation System
21:33:20 - 35.49##37.66##Steering wheel audio controls
21:33:20 - 37.66##38.99##Power Passenger Seat
21:33:20 - 38.99##40.22##Keyless Entry
21:33:20 - 40.22##41.66##Remote Engine Start
21:33:20 - 41.66##42.97##Traction Control
21:33:20 - 42.97##44.9##Come take a test drive today.
21:33:20 - Curl Response - {"error":"Video key not found [30AF2F0E-32BF-F190-EF02-6A92A2E86D56]"}
21:33:20 - Contents - /postVTTString/ -  - 
0##1.93##We are pleased to show you|||1.93##3.81##The 2024|||3.81##5.01##Grand Cherokee|||5.01##19.59##The Jeep Grand Cherokee offers superior off-road capability comparable to that of the upscale Land Rover LR3. This makes the Grand Cherokee a fine choice for families who venture off-road or vacation in the mountains or other remote areas.|||19.59##22.75##and it is priced below $45000|||22.75##25.81##This Vehicle has less than 8000 miles|||25.81##28.16##Here are some of this Vehicle's great options|||28.16##29.44##Back-Up Camera|||29.44##31.14##ANTI-LOCK BRAKING SYSTEM|||31.14##32.34##Power Liftgate|||32.34##33.9##LED Headlights|||33.9##35.49##Navigation System|||35.49##37.66##Steering wheel audio controls|||37.66##38.99##Power Passenger Seat|||38.99##40.22##Keyless Entry|||40.22##41.66##Remote Engine Start|||41.66##42.97##Traction Control|||42.97##44.9##Come take a test drive today.
21:33:20 - VIDEO JSON GEN RETURN VALUE: - 0
21:33:20 - update message_remote_queue set error=0, video = 1, error_message = concat( "", error_message ), process_start = '2024-06-24 21:27:30', audio_process_start = '2024-06-24 21:27:30', audio_process_end = '2024-06-24 21:27:34', video_process_start ='2024-06-24 21:27:34', video_process_end='2024-06-24 21:33:20' where queue_id = 306735
21:33:20 - ==32 - 1 Elapsed Time 350.16 ==

21:33:20 - update queue_status set stat_last_update=NOW(), type_cnt = 32, type_loop_cnt = 261 where type_val = 'V16'
21:33:20 - Curl Response - {"code":200,"status":"Success:PostServerProcessDetails Posted For IP [209.59.156.167] and Process [V16]"}
21:33:20 - Contents - /postServerProcessDetails/ - Success:PostServerProcessDetails Posted For IP [209.59.156.167] and Process [V16] - 200
21:33:20 - update queue_status set stat_last_update=NOW(), type_cnt = 32, type_loop_cnt = 261 where type_val = 'V16'
21:33:20 - Curl Response - {"code":200,"status":"Success:PostServerProcessDetails Posted For IP [209.59.156.167] and Process [V16]"}
21:33:20 - Contents - /postServerProcessDetails/ - Success:PostServerProcessDetails Posted For IP [209.59.156.167] and Process [V16] - 200
21:33:20 - ========== 32  - 196 mins 368.6471875 Video Process / Start:2024-06-24 17:18:01 / Mod:15/16======
21:33:21 - Fetching  Video Jobs Mod Val : 15 Mod Limit : 16 Queue ID : 0 

21:33:21 - ========select * from message_remote_queue, hvo_data where queue_id%16 = 15 and image = 1 and video = 0 and error = 0 and hvo_queue_id = queue_id   order by high_priority_row desc, queue_id asc limit 1==================count =1
21:33:21 - Processing Auto VideoFKEY:9CADDB55-A8D7-0812-539C-1AB6D078B66A - QueueID:306751 
21:33:21 - CLIENT INFO  CLIENT_FK  : 6C9F2577-52CB-A78F-38AF-7AB1C49C7FE8 ,CLIENT_INFO :{"client_id":"108595","client_fk":"6C9F2577-52CB-A78F-38AF-7AB1C49C7FE8","client_rftp_id":"2247660","client_ilot_id":"3302567","client_cc_id":"87677","client_name":"Valley Honda","client_active":"1","client_regen":"0","client_desc":"","client_createdate":"2023-08-25 20:31:09","client_enddate":"","client_update":"2023-08-25 20:31:09","client_demo":"0","client_email_forward":"","client_salesperson_name":"","client_address":"4173 Ogden Ave","client_city":"Aurora","client_state":"IL","client_zip":"60504","client_phone":"6308515700","client_url":"www.valleyhonda.com/","client_yt_uname":"","client_yt_pwd":"","client_md5":"c44e5f5f9431005761d4e1d1c07dbe6f","client_yt_verified":"0","client_yt_error":"0","client_video_size":"HDLARGE","client_tts_vm":"2","client_video_style":"RANDOM","client_mobile":"1","client_lat_lng":"","client_acc_id":"100000","SHOW_CARSTORY":"0"}
21:33:21 - Rest Call: /client/videoDetails/6C9F2577-52CB-A78F-38AF-7AB1C49C7FE8?video_key=9CADDB55-A8D7-0812-539C-1AB6D078B66A
21:33:21 - Curl Response - {"vehicle_id":"24138396","vehicle_client_id":"108595","vehicle_fkey":"9CADDB55-A8D7-0812-539C-1AB6D078B66A","vehicle_uid":"1288536502","vehicle_vin":"5FNRL5H63GB122156","vehicle_stock":"83571A","vehicle_year":"2016","vehicle_make":"Honda","vehicle_model":"Odyssey","vehicle_trim":"EX-L","vehicle_price":"14495","vehicle_mileage":"146394","vehicle_int_color":"","vehicle_ext_color":"Blue","vehicle_body_type":"","vehicle_listing_type":"Used","vehicle_citympg":"19","vehicle_hwympg":"28","vehicle_combmpg":"","vehicle_cylinders":"6","vehicle_engine_size":"3.5 L","vehicle_trans":"Automatic","vehicle_drivetrain":"FWD","vehicle_passengers":"0","vehicle_doors":"4","vehicle_certified":"1","vehicle_special":"0","vehicle_options":"Front Wheel Drive,Power Steering,ABS,4-Wheel Disc Brakes,Brake Assist,Aluminum Wheels,Tires - Front All-Season,Tires - Rear All-Season,Temporary Spare Tire,Sun\/Moonroof,Generic Sun\/Moonroof,Heated Mirrors,Power Mirror(s),Rear Defrost,Privacy Glass,Intermittent Wipers,Variable Speed Intermittent Wipers,Rear Spoiler,Third Passenger Door,Fourth Passenger Door,Power Third Passenger Door,Power Fourth Passenger Door,Power Liftgate,Daytime Running Lights,Automatic Headlights,AM\/FM Stereo,CD Player,Satellite Radio,Bluetooth Connection,Auxiliary Audio Input,Requires Subscription,Steering Wheel Audio Controls,Hard Disk Drive Media Storage,Power Driver Seat,Power Passenger Seat,Bucket Seats,Heated Front Seat(s),Driver Adjustable Lumbar,Pass-Through Rear Seat,Rear Bench Seat,Adjustable Steering Wheel,3rd Row Seat,Leather Steering Wheel,Universal Garage Door Opener,Cruise Control,Rear A\/C,Climate Control,Multi-Zone A\/C,Leather Seats,Driver Vanity Mirror,Passenger Vanity Mirror,Driver Illuminated Vanity Mirror,Passenger Illuminated Visor Mirror,Auto-Dimming Rearview Mirror,Floor Mats,Smart Device Integration,Immobilizer,Security System,Stability Control,Front Side Air Bag,Lane Departure Warning,Front Collision Warning,Tire Pressure Monitor,Driver Air Bag,Passenger Air Bag,Front Head Air Bag,Rear Head Air Bag,Passenger Air Bag Sensor,Child Safety Locks,Back-Up Camera","vehicle_desc":"Special HondaTrue Used Dream Deal APR financing of 1.49% up to 48 months available to customers who qualify for. Eligible vehicles are reported 2014 - 2020 Fit, Civic, Accord, HR-V, CR-V, Passport, Pilot, Ridgeline and Odyssey HondaTrue Used vehicles. Ends 7\/1\/2024.*Honda True Used - 100 day\/5,000 miles Warranty included in sale price, *Serviced and Ready to Go! This One is a Must-See, 3rd row seats: split-bench, 4-Wheel Disc Brakes, 4.25 Axle Ratio, 7 Speakers, ABS brakes, Air Conditioning, Alloy wheels, AM\/FM radio: SiriusXM, Anti-whiplash front head restraints, Auto-dimming Rear-View mirror, Automatic temperature control, Brake assist, Bumpers: body-color, CD player, Delay-off headlights, Driver door bin, Driver vanity mirror, Driver's Seat Mounted Armrest, Dual front impact airbags, Dual front side impact airbags, Electronic Stability Control, Exterior Parking Camera Rear, Four wheel independent suspension, Front anti-roll bar, Front Bucket Seats, Front dual zone A\/C, Front reading lights, Fully automatic headlights, Garage door transmitter: HomeLink, Heated door mirrors, Heated Front Bucket Seats, Heated front seats, Illuminated entry, Leather Seat Trim, Leather Shift Knob, Leather steering wheel, Low tire pressure warning, Occupant sensing airbag, Outside temperature display, Overhead airbag, Overhead console, Panic alarm, Passenger door bin, Passenger seat mounted armrest, Passenger vanity mirror, Power door mirrors, Power driver seat, Power Liftgate, Power moonroof, Power passenger seat, Power steering, Power windows, Radio data system, Rear air conditioning, Rear reading lights, Rear seat center armrest, Rear window defroster, Rear window wiper, Reclining 3rd row seat, Remote keyless entry, Security system, Speed-sensing steering, Speed-Sensitive Wipers, Split folding rear seat, Spoiler, Steering wheel mounted audio controls, Tachometer, Telescoping steering wheel, Tilt steering wheel, Traction control, Trip computer, Variably intermittent wipers.Recent Arrival! Certified. CARFAX One-Owner.2016 Blue Honda Odyssey 4D Passenger Van EX-L 3.5L V6 SOHC i-VTEC 24V 19\/28 City\/Highway MPG 6-Speed Automatic FWDHondaTrue Used Details:* Roadside Assistance* 112 Point Inspection* Limited Warranty: 5,000 Mile 100-days\/5000 miles(whichever comes first) after new car warranty expires or from certified purchase date* Vehicle History* Warranty Deductible: $0* Transferable Warranty* Honda Care Motor Club Partner for 1 year\/12,000 miles. Roadside Assistance, Trip Interruption and Concierge Service for 1 year\/12,000 miles (whichever occurs first) beginning at the expiration of the New Vehicle Limited Warranty, or from the date of sale of the vehicle if the New Vehicle Limited Warranty has expired at the time of sale. 2015 and newer models, Honda Roadside Assistance is available throughout the New Vehicle Limited Warranty period. One complimentary oil change within the first year of ownership. SiriusXM 90-Day free trial.* Powertrain Limited Warranty: 5,000 Mile 100-days\/5000 miles(whichever comes first) after new car warranty expires or from certified purchase dateAwards:* 2016 KBB.com 16 Best Family Cars * 2016 KBB.com Best Buy Awards Finalist * 2016 KBB.com Best Buy Awards * 2016 KBB.com Brand Image AwardsKelley Blue Book Brand Image Awards are based on the Brand Watch(tm) study from Kelley Blue Book Market Intelligence. Award calculated among non-luxury shoppers. For more information, visit www.kbb.com. Kelley Blue Book is a registered trademark of Kelley Blue Book Co., Inc.","vehicle_img_url":"https:\/\/content.homenetiol.com\/2000150\/2065303\/640x480\/9cf2454eff564cbe9bbde1d9da619bfd.jpg,https:\/\/content.homenetiol.com\/2000150\/2065303\/640x480\/7e619944ffe3499a8d67f7f9eef55ac6.jpg,https:\/\/content.homenetiol.com\/2000150\/2065303\/640x480\/4655abf5a86e4305b96940ba93fdb176.jpg,https:\/\/content.homenetiol.com\/2000150\/2065303\/640x480\/a5d017e7f0cc4495b8f139b146d24464.jpg,https:\/\/content.homenetiol.com\/2000150\/2065303\/640x480\/c37df8b4062345ebb450491883a509b4.jpg,https:\/\/content.homenetiol.com\/2000150\/2065303\/640x480\/165be661a5414eb191e2dd4503a5fadd.jpg,https:\/\/content.homenetiol.com\/2000150\/2065303\/640x480\/8884380bd167414cb0d87f6889d8991f.jpg,https:\/\/content.homenetiol.com\/2000150\/2065303\/640x480\/91cf3eb446d741d1afc69569ca86f303.jpg,https:\/\/content.homenetiol.com\/2000150\/2065303\/640x480\/f6f66b32dfaa4e289a500860c773998d.jpg,https:\/\/content.homenetiol.com\/2000150\/2065303\/640x480\/25fd69a375c54cd6b0648c7de958f50b.jpg,https:\/\/content.homenetiol.com\/2000150\/2065303\/640x480\/2e22e773279444fd86f158f7269b28d5.jpg,https:\/\/content.homenetiol.com\/2000150\/2065303\/640x480\/303b31b34f974bb6b21ed29d7c636175.jpg,https:\/\/content.homenetiol.com\/2000150\/2065303\/640x480\/a06c7c0af4864066b527b44a1649ea73.jpg,https:\/\/content.homenetiol.com\/2000150\/2065303\/640x480\/881cf401d90942d6a82cfc07ce80675e.jpg,https:\/\/content.homenetiol.com\/2000150\/2065303\/640x480\/0c17c6075c3a43a7adfecbb90aebb9ac.jpg,https:\/\/content.homenetiol.com\/2000150\/2065303\/640x480\/9caad27258cb402c8b00cf405e5cb7c0.jpg,https:\/\/content.homenetiol.com\/2000150\/2065303\/640x480\/30515914dfb5434f9fbd120143d9e589.jpg,https:\/\/content.homenetiol.com\/2000150\/2065303\/640x480\/29817a1cc3664529be93d00a13b59de7.jpg,https:\/\/content.homenetiol.com\/2000150\/2065303\/640x480\/52e408ef5230467f97a348327d17817e.jpg,https:\/\/content.homenetiol.com\/2000150\/2065303\/640x480\/4698b5e8e135456da43ebf95f096f635.jpg","vehicle_overlay_time":"","vehicle_tts_text":"","vehicle_img_cnt":"","veh_more_info":"","vehicle_create_date":"2024-06-24 20:43:11","vehicle_updated_date":"","vehicle_last_update":"2024-06-24 20:43:11","vehicle_md5":"a8289aa8d87244370c364902f645a5ea","vehicle_status":"N","vehicle_view_cnt":"0","vehicle_url":"","vehicle_murl":"","vehicle_https_url":"","vehicle_delete_flag":"0","vehicle_delete_time":"","yt_url":"","yt_key":"","yt_created_on":"","cf_url":"","cf_xml":""}
21:33:21 - Rest Call: /client/getAudioVideoConfig/6C9F2577-52CB-A78F-38AF-7AB1C49C7FE8?listing_type=Used&video_type=Auto&certified=1&vehicle_make=Honda
21:33:22 - Curl Response - {"BG_MUSIC":"Concept5","THEME_BG_COLOR":"ffffff","THEME_ACCENTS_COLOR":"532380","THEME_FONT_COLOR":"444444","THEME_FONT":"Din","THEME_STYLE":"Ren","BG_VOL_LEVEL":"0.25","AUDIO_VO":"","VIDEO_SIZE":"VIDEO_LARGE","CUSTOM_INTRO":"","CUSTOM_OUTRO":"","THEME_KEY":"100000_0_Auto_Default_0_ALL","THEME_RANK":"2","THEME_CONFIG":"RESELLER_CONFIG","OLD_BG_STYLE":"0"}
21:33:22 - Return from CheckProfileVal function::0 - DISABLE_PRICE - YES
21:33:22 - Return from CheckProfileVal function::0 - DISABLE_MILEAGE - YES
21:33:22 - Return from CheckProfileVal function::0 - DISABLE_CARSTORY - YES
21:33:22 - Config Information for 9CADDB55-A8D7-0812-539C-1AB6D078B66A - Width:640 - CPO:0/1 - CF: - CS:0  - Intro: - Outro: - Ovleray: -THEME:100000_0_Auto_Default_0_ALL
21:33:22 - https://content.homenetiol.com/2000150/2065303/640x480/9cf2454eff564cbe9bbde1d9da619bfd.jpg /var/www/html/clients/108595/images/9CADDB55-A8D7-0812-539C-1AB6D078B66A_1.jpg
21:33:22 - https://content.homenetiol.com/2000150/2065303/640x480/7e619944ffe3499a8d67f7f9eef55ac6.jpg /var/www/html/clients/108595/images/9CADDB55-A8D7-0812-539C-1AB6D078B66A_2.jpg
21:33:22 - https://content.homenetiol.com/2000150/2065303/640x480/4655abf5a86e4305b96940ba93fdb176.jpg /var/www/html/clients/108595/images/9CADDB55-A8D7-0812-539C-1AB6D078B66A_3.jpg
21:33:22 - https://content.homenetiol.com/2000150/2065303/640x480/a5d017e7f0cc4495b8f139b146d24464.jpg /var/www/html/clients/108595/images/9CADDB55-A8D7-0812-539C-1AB6D078B66A_4.jpg
21:33:22 - https://content.homenetiol.com/2000150/2065303/640x480/c37df8b4062345ebb450491883a509b4.jpg /var/www/html/clients/108595/images/9CADDB55-A8D7-0812-539C-1AB6D078B66A_5.jpg
21:33:22 - https://content.homenetiol.com/2000150/2065303/640x480/165be661a5414eb191e2dd4503a5fadd.jpg /var/www/html/clients/108595/images/9CADDB55-A8D7-0812-539C-1AB6D078B66A_6.jpg
21:33:22 - https://content.homenetiol.com/2000150/2065303/640x480/8884380bd167414cb0d87f6889d8991f.jpg /var/www/html/clients/108595/images/9CADDB55-A8D7-0812-539C-1AB6D078B66A_7.jpg
21:33:22 - https://content.homenetiol.com/2000150/2065303/640x480/91cf3eb446d741d1afc69569ca86f303.jpg /var/www/html/clients/108595/images/9CADDB55-A8D7-0812-539C-1AB6D078B66A_8.jpg
21:33:22 - https://content.homenetiol.com/2000150/2065303/640x480/f6f66b32dfaa4e289a500860c773998d.jpg /var/www/html/clients/108595/images/9CADDB55-A8D7-0812-539C-1AB6D078B66A_9.jpg
21:33:22 - https://content.homenetiol.com/2000150/2065303/640x480/25fd69a375c54cd6b0648c7de958f50b.jpg /var/www/html/clients/108595/images/9CADDB55-A8D7-0812-539C-1AB6D078B66A_10.jpg
21:33:22 - https://content.homenetiol.com/2000150/2065303/640x480/2e22e773279444fd86f158f7269b28d5.jpg /var/www/html/clients/108595/images/9CADDB55-A8D7-0812-539C-1AB6D078B66A_11.jpg
21:33:22 - https://content.homenetiol.com/2000150/2065303/640x480/303b31b34f974bb6b21ed29d7c636175.jpg /var/www/html/clients/108595/images/9CADDB55-A8D7-0812-539C-1AB6D078B66A_12.jpg
21:33:22 - https://content.homenetiol.com/2000150/2065303/640x480/a06c7c0af4864066b527b44a1649ea73.jpg /var/www/html/clients/108595/images/9CADDB55-A8D7-0812-539C-1AB6D078B66A_13.jpg
21:33:22 - https://content.homenetiol.com/2000150/2065303/640x480/881cf401d90942d6a82cfc07ce80675e.jpg /var/www/html/clients/108595/images/9CADDB55-A8D7-0812-539C-1AB6D078B66A_14.jpg
21:33:22 - https://content.homenetiol.com/2000150/2065303/640x480/0c17c6075c3a43a7adfecbb90aebb9ac.jpg /var/www/html/clients/108595/images/9CADDB55-A8D7-0812-539C-1AB6D078B66A_15.jpg
21:33:22 - https://content.homenetiol.com/2000150/2065303/640x480/9caad27258cb402c8b00cf405e5cb7c0.jpg /var/www/html/clients/108595/images/9CADDB55-A8D7-0812-539C-1AB6D078B66A_16.jpg
21:33:22 - https://content.homenetiol.com/2000150/2065303/640x480/30515914dfb5434f9fbd120143d9e589.jpg /var/www/html/clients/108595/images/9CADDB55-A8D7-0812-539C-1AB6D078B66A_17.jpg
21:33:22 - https://content.homenetiol.com/2000150/2065303/640x480/29817a1cc3664529be93d00a13b59de7.jpg /var/www/html/clients/108595/images/9CADDB55-A8D7-0812-539C-1AB6D078B66A_18.jpg
21:33:22 - https://content.homenetiol.com/2000150/2065303/640x480/52e408ef5230467f97a348327d17817e.jpg /var/www/html/clients/108595/images/9CADDB55-A8D7-0812-539C-1AB6D078B66A_19.jpg
21:33:22 - https://content.homenetiol.com/2000150/2065303/640x480/4698b5e8e135456da43ebf95f096f635.jpg /var/www/html/clients/108595/images/9CADDB55-A8D7-0812-539C-1AB6D078B66A_20.jpg
21:33:22 - Image Count 20
21:33:22 - Setting Female English VO Constants | 0 | 0
21:33:22 - ====HVO Value:1, Audio Value:0===
21:33:22 - Return from CheckProfileVal function::0 - AUDIO_INTRO - 
21:33:22 - Return from CheckProfileVal function::0 - AUDIO_OUTRO - 
21:33:22 - ================Process HVO=========== 
 1
21:33:22 - ================CLIENT SELECT TTS VM VALUE=========== 
 2
21:33:22 - 2 - 2 - /var/app/video_pre_processor/assets/hvo/
21:33:22 - Setting Female English VO Constants | 0 | 2
21:33:22 - HVO Soap Call Method - AudoListWMIE 

21:33:22 - Getting Text For Audio Files
21:33:22 - HVO Soap Call Method - AudoListTWMIE 

21:33:22 - Getting Text For Audio Files emotionalFile 11
21:33:22 - HVO Soap Call Method - GetTTScripts 

21:33:22 - Getting Text For Audio Files introEmotionalFile 26
21:33:22 - HVO Soap Call Method - GetTTScripts 

21:33:22 - Getting Text For Audio Files scriptFile 22
21:33:22 - HVO Soap Call Method - GetTTScripts 

21:33:22 - ================TTS VM VALUE=========== 
 2
21:33:22 - ================GetVOFiles=========== 
 {"OptionFiles":[{"option_str":"* General Options Intro","option_file":"http:\/\/hvo.flickfusion.net\/audio\/options\/options_fe_audio_file_55.mp3","option_saftey":1},{"option_str":"Back-Up Camera","option_file":"http:\/\/hvo.flickfusion.net\/audio\/options\/options_fe_audio_file_337.mp3","option_saftey":1},{"option_str":"Steering wheel audio controls","option_file":"http:\/\/hvo.flickfusion.net\/audio\/options\/options_fe_audio_file_296.mp3","option_saftey":1},{"option_str":"Power Passenger Seat","option_file":"http:\/\/hvo.flickfusion.net\/audio\/options\/options_fe_audio_file_242.mp3","option_saftey":1},{"option_str":"ANTI-LOCK BRAKING SYSTEM","option_file":"http:\/\/hvo.flickfusion.net\/audio\/options\/options_fe_audio_file_70.mp3","option_saftey":1},{"option_str":"Stability Control","option_file":"http:\/\/hvo.flickfusion.net\/audio\/options\/options_fe_audio_file_17.mp3","option_saftey":2},{"option_str":"Lane Departure Warning","option_file":"http:\/\/hvo.flickfusion.net\/audio\/options\/options_fe_audio_file_1348.mp3","option_saftey":1},{"option_str":"Power Liftgate","option_file":"http:\/\/hvo.flickfusion.net\/audio\/options\/options_fe_audio_file_238.mp3","option_saftey":1},{"option_str":"Bluetooth","option_file":"http:\/\/hvo.flickfusion.net\/audio\/options\/options_fe_audio_file_846.mp3","option_saftey":1},{"option_str":"Leather Wrapped Steering Wheel","option_file":"http:\/\/hvo.flickfusion.net\/audio\/options\/options_fe_audio_file_207.mp3","option_saftey":1},{"option_str":"Driver Air Bag","option_file":"http:\/\/hvo.flickfusion.net\/audio\/options\/options_fe_audio_file_148.mp3","option_saftey":1},{"option_str":"Adjustable Steering Wheel","option_file":"http:\/\/hvo.flickfusion.net\/audio\/options\/options_fe_audio_file_74.mp3","option_saftey":1},{"option_str":"Power Steering","option_file":"http:\/\/hvo.flickfusion.net\/audio\/options\/options_fe_audio_file_244.mp3","option_saftey":1},{"option_str":"Cruise Control","option_file":"http:\/\/hvo.flickfusion.net\/audio\/options\/options_fe_audio_file_134.mp3","option_saftey":1},{"option_str":"Aluminum Wheels","option_file":"http:\/\/hvo.flickfusion.net\/audio\/options\/options_fe_audio_file_83.mp3","option_saftey":1},{"option_str":"Hard Disk Drive Media Storage","option_file":"http:\/\/hvo.flickfusion.net\/audio\/options\/options_fe_audio_file_340.mp3","option_saftey":1},{"option_str":"4-Wheel Disc Brakes","option_file":"http:\/\/hvo.flickfusion.net\/audio\/options\/options_fe_audio_file_63.mp3","option_saftey":1},{"option_str":"AUTO-DIMMING REARVIEW MIRROR (PPO)","option_file":"http:\/\/hvo.flickfusion.net\/audio\/options\/options_fe_audio_file_436.mp3","option_saftey":1},{"option_str":"FLOOR MATS","option_file":"http:\/\/hvo.flickfusion.net\/audio\/options\/options_fe_audio_file_578.mp3","option_saftey":1},{"option_str":"Rear Defrost","option_file":"http:\/\/hvo.flickfusion.net\/audio\/options\/options_fe_audio_file_259.mp3","option_saftey":1},{"option_str":"Climate Control","option_file":"http:\/\/hvo.flickfusion.net\/audio\/options\/options_fe_audio_file_126.mp3","option_saftey":1},{"option_str":"FRONT WHEEL DRIVE","option_file":"http:\/\/hvo.flickfusion.net\/audio\/options\/options_fe_audio_file_170.mp3","option_saftey":1},{"option_str":"Universal Garage Door Opener","option_file":"http:\/\/hvo.flickfusion.net\/audio\/options\/options_fe_audio_file_323.mp3","option_saftey":1},{"option_str":"AM\/FM STEREO RADIO","option_file":"http:\/\/hvo.flickfusion.net\/audio\/options\/options_fe_audio_file_69.mp3","option_saftey":1},{"option_str":"CD Player","option_file":"http:\/\/hvo.flickfusion.net\/audio\/options\/options_fe_audio_file_111.mp3","option_saftey":1},{"option_str":"Passenger Air Bag","option_file":"http:\/\/hvo.flickfusion.net\/audio\/options\/options_fe_audio_file_228.mp3","option_saftey":1},{"option_str":"SECURITY SYSTEM","option_file":"http:\/\/hvo.flickfusion.net\/audio\/options\/options_fe_audio_file_996.mp3","option_saftey":1},{"option_str":"Bucket Seats","option_file":"http:\/\/hvo.flickfusion.net\/audio\/options\/options_fe_audio_file_107.mp3","option_saftey":1},{"option_str":"Child Safety Locks","option_file":"http:\/\/hvo.flickfusion.net\/audio\/options\/options_fe_audio_file_122.mp3","option_saftey":1},{"option_str":"Auxiliary Audio Input","option_file":"http:\/\/hvo.flickfusion.net\/audio\/options\/options_fe_audio_file_95.mp3","option_saftey":1},{"option_str":"Satellite Radio","option_file":"http:\/\/hvo.flickfusion.net\/audio\/options\/options_fe_audio_file_279.mp3","option_saftey":1},{"option_str":"Fourth Passenger Door","option_file":"http:\/\/hvo.flickfusion.net\/audio\/options\/options_fe_audio_file_174.mp3","option_saftey":1},{"option_str":"Power Third Passenger Door","option_file":"http:\/\/hvo.flickfusion.net\/audio\/options\/options_fe_audio_file_344.mp3","option_saftey":1},{"option_str":"Daytime Running Lights","option_file":"http:\/\/hvo.flickfusion.net\/audio\/options\/options_fe_audio_file_142.mp3","option_saftey":1},{"option_str":"Leather Seats","option_file":"http:\/\/hvo.flickfusion.net\/audio\/options\/options_fe_audio_file_206.mp3","option_saftey":1},{"option_str":"Brake Assist","option_file":"http:\/\/hvo.flickfusion.net\/audio\/options\/options_fe_audio_file_104.mp3","option_saftey":1},{"option_str":"Rear Head Air Bag","option_file":"http:\/\/hvo.flickfusion.net\/audio\/options\/options_fe_audio_file_261.mp3","option_saftey":1},{"option_str":"Rear A\/C","option_file":"http:\/\/hvo.flickfusion.net\/audio\/options\/options_fe_audio_file_257.mp3","option_saftey":1},{"option_str":"Power Fourth Passenger Door","option_file":"http:\/\/hvo.flickfusion.net\/audio\/options\/options_fe_audio_file_345.mp3","option_saftey":1},{"option_str":"Power Driver Seat","option_file":"http:\/\/hvo.flickfusion.net\/audio\/options\/options_fe_audio_file_237.mp3","option_saftey":1},{"option_str":"Driver Vanity Mirror","option_file":"http:\/\/hvo.flickfusion.net\/audio\/options\/options_fe_audio_file_152.mp3","option_saftey":1},{"option_str":"Driver Illuminated Vanity Mirror","option_file":"http:\/\/hvo.flickfusion.net\/audio\/options\/options_fe_audio_file_149.mp3","option_saftey":1},{"option_str":"Passenger Illuminated Visor Mirror","option_file":"http:\/\/hvo.flickfusion.net\/audio\/options\/options_fe_audio_file_230.mp3","option_saftey":1},{"option_str":"Third Passenger Door","option_file":"http:\/\/hvo.flickfusion.net\/audio\/options\/options_fe_audio_file_304.mp3","option_saftey":1},{"option_str":"Privacy Glass","option_file":"http:\/\/hvo.flickfusion.net\/audio\/options\/options_fe_audio_file_249.mp3","option_saftey":1},{"option_str":"Passenger Vanity Mirror","option_file":"http:\/\/hvo.flickfusion.net\/audio\/options\/options_fe_audio_file_233.mp3","option_saftey":1},{"option_str":"Heated Mirrors","option_file":"http:\/\/hvo.flickfusion.net\/audio\/options\/options_fe_audio_file_7.mp3","option_saftey":1},{"option_str":"Pass-Through Rear Seat","option_file":"http:\/\/hvo.flickfusion.net\/audio\/options\/options_fe_audio_file_227.mp3","option_saftey":1},{"option_str":"Tire Pressure Monitor","option_file":"http:\/\/hvo.flickfusion.net\/audio\/options\/options_fe_audio_file_36.mp3","option_saftey":2},{"option_str":"Rear Spoiler","option_file":"http:\/\/hvo.flickfusion.net\/audio\/options\/options_fe_audio_file_10.mp3","option_saftey":1},{"option_str":"Tires - Rear All-Season","option_file":"http:\/\/hvo.flickfusion.net\/audio\/options\/options_fe_audio_file_313.mp3","option_saftey":1},{"option_str":"Tires - Front All-Season","option_file":"http:\/\/hvo.flickfusion.net\/audio\/options\/options_fe_audio_file_308.mp3","option_saftey":1},{"option_str":"REAR BENCH SEAT","option_file":"http:\/\/hvo.flickfusion.net\/audio\/options\/options_fe_audio_file_693.mp3","option_saftey":1},{"option_str":"Smart Device Integration","option_file":"http:\/\/hvo.flickfusion.net\/audio\/options\/options_fe_audio_file_1480.mp3","option_saftey":1},{"option_str":"Sun\/Moonroof","option_file":"http:\/\/hvo.flickfusion.net\/audio\/options\/options_fe_audio_file_1484.mp3","option_saftey":1},{"option_str":"3RD ROW SEAT","option_file":"","option_saftey":1},{"option_str":"Variable Speed Intermittent Wipers","option_file":"http:\/\/hvo.flickfusion.net\/audio\/options\/options_fe_audio_file_325.mp3","option_saftey":1}],"yearFile":"http:\/\/hvo.flickfusion.net\/audio\/year\/year_fe_audio_file_33.mp3","makeFile":"http:\/\/hvo.flickfusion.net\/audio\/makes\/make_name_fe_audio_file_16.mp3","modelFile":"http:\/\/hvo.flickfusion.net\/audio\/mdlnames\/model_name_fe_audio_file_143.mp3","modelHighlightFile":"http:\/\/hvo.flickfusion.net\/audio\/models\/model_fe_audio_file_143.mp3","styleFile":"","bodytypeFile":"","transFile":"http:\/\/hvo.flickfusion.net\/audio\/domain_transmission\/transmission_fe_audio_file_2.mp3","engineFile":"http:\/\/hvo.flickfusion.net\/audio\/domain_enginesize\/enginesize_fe_audio_file_7.mp3","cylindersFile":"http:\/\/hvo.flickfusion.net\/audio\/domain_cylinders\/cylinder_fe_audio_file_5.mp3","driveTrainFile":"http:\/\/hvo.flickfusion.net\/audio\/domain_drivetrain\/drivetrain_fe_audio_file_1.mp3","priceFile":"http:\/\/hvo.flickfusion.net\/audio\/prices\/price_fe_audio_file_3.mp3","mileageFile":"http:\/\/hvo.flickfusion.net\/audio\/mileage\/miles_fe_audio_file_32.mp3","carfaxFile":"","emotionalFile":"http:\/\/hvo.flickfusion.net\/audio\/emotional\/emotional_fe_audio_file_11.mp3","introEmotionalFile":"http:\/\/hvo.flickfusion.net\/audio\/emotional\/ie_fe_audio_file_26.mp3","scriptFile":"http:\/\/hvo.flickfusion.net\/audio\/domain_scripts\/script_fe_audio_file_22.mp3","statusCode":"1","statusMessage":"Audio Files Sent"}
21:33:22 - /var/www/html/clients/108595/audio/9CADDB55-A8D7-0812-539C-1AB6D078B66A.wav
21:33:22 - ================Process HVO SOAP CALL CMD=========== 
 /usr/bin/sox
 STATUS CODE 
 1
21:33:22 - /var/app/video_pre_processor/assets/hvo/ie_fe_audio_file_26.wav PlayTime:1.96
21:33:22 - /var/app/video_pre_processor/assets/hvo/year_fe_audio_file_33.wav PlayTime:1.63
21:33:22 - /var/app/video_pre_processor/assets/hvo/model_name_fe_audio_file_143.wav PlayTime:0.71
21:33:22 - /var/app/video_pre_processor/assets/hvo/model_fe_audio_file_143.wav PlayTime:9.4
21:33:22 - Skipping VTT for BODY - bodytypeFile
21:33:22 - /var/app/video_pre_processor/assets/hvo/price_fe_audio_file_3.wav PlayTime:3
21:33:22 - KM Check : 146394 | 0
21:33:22 - /var/app/video_pre_processor/assets/hvo/miles_fe_audio_file_32.wav PlayTime:3.45
21:33:22 - Curl Response - {"error":"Vehicle options not found for vehicle key[9CADDB55-A8D7-0812-539C-1AB6D078B66A]"}
21:33:22 - ============={"error":"Vehicle options not found for vehicle key[9CADDB55-A8D7-0812-539C-1AB6D078B66A]"}===============
21:33:22 - /var/app/video_pre_processor/assets/hvo/options_fe_audio_file_55.wav PlayTime:2.35
21:33:22 - /var/app/video_pre_processor/assets/hvo/options_fe_audio_file_337.wav PlayTime:1.28
21:33:22 - /var/app/video_pre_processor/assets/hvo/options_fe_audio_file_296.wav PlayTime:2.17
21:33:22 - /var/app/video_pre_processor/assets/hvo/options_fe_audio_file_242.wav PlayTime:1.33
21:33:22 - /var/app/video_pre_processor/assets/hvo/options_fe_audio_file_70.wav PlayTime:1.7
21:33:22 - /var/app/video_pre_processor/assets/hvo/options_fe_audio_file_17.wav PlayTime:1.25
21:33:22 - /var/app/video_pre_processor/assets/hvo/options_fe_audio_file_1348.wav PlayTime:1.44
21:33:22 - /var/app/video_pre_processor/assets/hvo/options_fe_audio_file_238.wav PlayTime:1.2
21:33:22 - /var/app/video_pre_processor/assets/hvo/options_fe_audio_file_846.wav PlayTime:1.04
21:33:22 - /var/app/video_pre_processor/assets/hvo/options_fe_audio_file_207.wav PlayTime:1.83
21:33:22 - /var/app/video_pre_processor/assets/hvo/options_fe_audio_file_148.wav PlayTime:1.28
21:33:22 - ======= ALL Options  ========== 
null
21:33:22 - /var/www/html/clients/108595/audio/9CADDB55-A8D7-0812-539C-1AB6D078B66A_option.wav
21:33:22 - /usr/bin/sox /var/app/video_pre_processor/assets/hvo/options_fe_audio_file_55.wav /var/app/video_pre_processor/assets/hvo/options_fe_audio_file_337.wav /var/app/video_pre_processor/assets/hvo/options_fe_audio_file_296.wav /var/app/video_pre_processor/assets/hvo/options_fe_audio_file_242.wav /var/app/video_pre_processor/assets/hvo/options_fe_audio_file_70.wav /var/app/video_pre_processor/assets/hvo/options_fe_audio_file_17.wav /var/app/video_pre_processor/assets/hvo/options_fe_audio_file_1348.wav /var/app/video_pre_processor/assets/hvo/options_fe_audio_file_238.wav /var/app/video_pre_processor/assets/hvo/options_fe_audio_file_846.wav /var/app/video_pre_processor/assets/hvo/options_fe_audio_file_207.wav /var/app/video_pre_processor/assets/hvo/options_fe_audio_file_148.wav /var/www/html/clients/108595/audio/9CADDB55-A8D7-0812-539C-1AB6D078B66A_option.wav
21:33:22 - /var/www/html/clients/108595/audio/9CADDB55-A8D7-0812-539C-1AB6D078B66A_option.wav PlayTime:16.88
21:33:22 - Skipping VTT for CARFAX - carfaxFile
21:33:22 - /var/app/video_pre_processor/assets/hvo/emotional_fe_audio_file_11.wav PlayTime:4.88
21:33:22 - /usr/bin/sox /var/app/video_pre_processor/assets/hvo/ie_fe_audio_file_26.wav /var/app/video_pre_processor/assets/hvo/year_fe_audio_file_33.wav /var/app/video_pre_processor/assets/hvo/model_name_fe_audio_file_143.wav /var/app/video_pre_processor/assets/hvo/model_fe_audio_file_143.wav /var/app/video_pre_processor/assets/hvo/price_fe_audio_file_3.wav /var/app/video_pre_processor/assets/hvo/miles_fe_audio_file_32.wav /var/www/html/clients/108595/audio/9CADDB55-A8D7-0812-539C-1AB6D078B66A_option.wav /var/app/video_pre_processor/assets/hvo/emotional_fe_audio_file_11.wav /var/www/html/clients/108595/audio/9CADDB55-A8D7-0812-539C-1AB6D078B66A_temp1.wav
21:33:22 - Return from CheckProfileVal function::0 - REPLACE_FULL_AUDIO - 
21:33:22 - Return from CheckProfileVal function::0 - REPLACE_FULL_AUDIO_NEW - 
21:33:22 - ========REPALCE AUDIO TRACK LISTING TYPE used \ n USED VALUE : 0 NEW AUDIO VALUE : { 0} ==============

21:33:22 - Video Length for audio merge: 0
21:33:22 - /root/bin/ffmpeg  -i /var/www/html/clients/108595/audio/9CADDB55-A8D7-0812-539C-1AB6D078B66A.wav -f mp3 -ar 44100 -ab 320 -ac 2 -y /var/www/html/clients/108595/audio/9CADDB55-A8D7-0812-539C-1AB6D078B66A.mp3
ffmpeg version N-109053-g9b13078c6a Copyright (c) 2000-2022 the FFmpeg developers
  built with gcc 5.4.0 (GCC)
  configuration: --prefix=/root/ffmpeg_build --pkg-config-flags=--static --extra-cflags=-I/root/ffmpeg_build/include --extra-ldflags=-L/root/ffmpeg_build/lib --extra-libs=-lpthread --extra-libs=-lm --bindir=/root/bin --enable-gpl --enable-libfdk_aac --enable-libfreetype --enable-libmp3lame --enable-libopus --enable-libvpx --enable-libx264 --enable-openssl --enable-libx265 --enable-nonfree --enable-libvidstab
  libavutil      57. 42.100 / 57. 42.100
  libavcodec     59. 52.101 / 59. 52.101
  libavformat    59. 34.101 / 59. 34.101
  libavdevice    59.  8.101 / 59.  8.101
  libavfilter     8. 50.100 /  8. 50.100
  libswscale      6.  8.112 /  6.  8.112
  libswresample   4.  9.100 /  4.  9.100
  libpostproc    56.  7.100 / 56.  7.100
Guessed Channel Layout for Input Stream #0.0 : stereo
Input #0, wav, from '/var/www/html/clients/108595/audio/9CADDB55-A8D7-0812-539C-1AB6D078B66A.wav':
  Duration: 00:00:41.92, bitrate: 1411 kb/s
  Stream #0:0: Audio: pcm_s16le ([1][0][0][0] / 0x0001), 44100 Hz, 2 channels, s16, 1411 kb/s
Stream mapping:
  Stream #0:0 -> #0:0 (pcm_s16le (native) -> mp3 (libmp3lame))
Press [q] to stop, [?] for help
[libmp3lame @ 0x415e480] Bitrate 320 is extremely low, maybe you mean 320k
The bitrate parameter is set too low. It takes bits/s as argument, not kbits/s
Output #0, mp3, to '/var/www/html/clients/108595/audio/9CADDB55-A8D7-0812-539C-1AB6D078B66A.mp3':
  Metadata:
    TSSE            : Lavf59.34.101
  Stream #0:0: Audio: mp3, 44100 Hz, stereo, s16p, 0 kb/s
    Metadata:
      encoder         : Lavc59.52.101 libmp3lame
size=       0kB time=-577014:32:22.77 bitrate=  -0.0kbits/s speed=N/A    
size=     109kB time=00:00:06.94 bitrate= 128.3kbits/s speed=13.9x    
size=     219kB time=00:00:13.97 bitrate= 128.1kbits/s speed=13.9x    
size=     256kB time=00:00:20.95 bitrate= 100.1kbits/s speed=13.9x    
size=     256kB time=00:00:27.84 bitrate=  75.3kbits/s speed=13.9x    
size=     512kB time=00:00:34.77 bitrate= 120.6kbits/s speed=13.9x    
size=     512kB time=00:00:41.45 bitrate= 101.2kbits/s speed=13.8x    
size=     656kB time=00:00:41.90 bitrate= 128.2kbits/s speed=13.8x    
video:0kB audio:656kB subtitle:0kB other streams:0kB global headers:0kB muxing overhead: 0.037691%
21:33:25 - /var/app/video_pre_processor/assets/vidbot/_files/audio/Concept5.mp3 PlayTime:546.74
21:33:25 - Using Concept5.mp3 - /var/app/video_pre_processor/assets/vidbot/_files/audio/Concept5.mp3
21:33:25 - BG MUSIC FILE /var/app/video_pre_processor/assets/vidbot/_files/audio/Concept5.mp3 

21:33:25 - BG AUDIO CLIENT OVELAY VALUE : 0 

21:33:25 - /var/www/html/clients/108595/audio/9CADDB55-A8D7-0812-539C-1AB6D078B66A.wav PlayTime:41.92
21:33:25 - VParent - VOLEN:43.92 | /var/www/html/clients/108595/audio/9CADDB55-A8D7-0812-539C-1AB6D078B66A.mp3 | /var/app/video_pre_processor/assets/vidbot/_files/audio/Concept5.mp3 | /var/www/html/clients/108595/audio/9CADDB55-A8D7-0812-539C-1AB6D078B66A.wav
21:33:25 - AUDIO PROCESS RETURN VALUE: - 1
21:33:25 - update message_remote_queue set video_process_start = '2024-06-24 21:33:25' where queue_id = 306751
21:33:25 - CLIENT INFO DATA 
{"client_id":"108595","client_fk":"6C9F2577-52CB-A78F-38AF-7AB1C49C7FE8","client_rftp_id":"2247660","client_ilot_id":"3302567","client_cc_id":"87677","client_name":"Valley Honda","client_active":"1","client_regen":"0","client_desc":"","client_createdate":"2023-08-25 20:31:09","client_enddate":"","client_update":"2023-08-25 20:31:09","client_demo":"0","client_email_forward":"","client_salesperson_name":"","client_address":"4173 Ogden Ave","client_city":"Aurora","client_state":"IL","client_zip":"60504","client_phone":"6308515700","client_url":"www.valleyhonda.com\/","client_yt_uname":"","client_yt_pwd":"","client_md5":"c44e5f5f9431005761d4e1d1c07dbe6f","client_yt_verified":"0","client_yt_error":"0","client_video_size":"HDLARGE","client_tts_vm":"2","client_video_style":"RANDOM","client_mobile":"1","client_lat_lng":"","client_acc_id":"100000","SHOW_CARSTORY":"0"}
21:33:25 - Map Exists: /var/www/html/clients/108595/library/map.jpg
21:33:25 - Checking CUSTOM_INTRO
21:33:25 - Checking CUSTOM_OUTRO
21:33:25 - ================CREATE VIDEO START =========== 

21:33:25 - ================VIDEO JSON GEN START ==============
21:33:25 - Video Size 360
21:33:25 - ===========Video Theme font ================Dinot
21:33:25 - ==========Video fk : ==============9CADDB55-A8D7-0812-539C-1AB6D078B66A
21:33:25 - ==============AUDIO VIDEO CONFIG : =========={"BG_MUSIC":"Concept5","THEME_BG_COLOR":"ffffff","THEME_ACCENTS_COLOR":"532380","THEME_FONT_COLOR":"444444","THEME_FONT":"Dinot","THEME_STYLE":"Ren","BG_VOL_LEVEL":"0.25","AUDIO_VO":"","VIDEO_SIZE":"VIDEO_LARGE","CUSTOM_INTRO":"","CUSTOM_OUTRO":"","THEME_KEY":"100000_0_Auto_Default_0_ALL","THEME_RANK":"2","THEME_CONFIG":"RESELLER_CONFIG","OLD_BG_STYLE":"0"}
21:33:25 - CLIENT FKEY :  6C9F2577-52CB-A78F-38AF-7AB1C49C7FE8  VIDEO FKEY :  9CADDB55-A8D7-0812-539C-1AB6D078B66A  VEHICLE FKEY :   
21:33:25 - INFO:: Video Type:SS Video Size:360 
21:33:25 - Return from CheckProfileVal function::0 - DISPLAY_MILEAGE - NO
21:33:25 - Return from CheckProfileVal function::0 - DISPLAY_MILEAGE - NO
21:33:25 - Return from CheckProfileVal function::0 - DISPLAY_PRICE - NO
21:33:25 - Return from CheckProfileVal function::0 - DISPLAY_PRICE - NO
21:33:25 - ==================ClipsGen START  =====================

21:33:25 - Return from CheckProfileVal function::0 - AUDIO_VO - NO_VO
21:33:25 - Return from CheckProfileVal function::0 - AUDIO_VO - NO_VO
21:33:25 - Return from CheckProfileVal function::0 - AUDIO_VO - LIVE_VO
21:33:25 - Return from CheckProfileVal function::0 - AUDIO_VO - LIVE_VO
21:33:25 - Return from CheckProfileVal function::0 - DISPLAY_OPTIONS - NO
21:33:25 - Return from CheckProfileVal function::0 - DISPLAY_OPTIONS - NO
21:33:25 - Return from CheckProfileVal function::0 - DISPLAY_PRICE - NO
21:33:25 - Return from CheckProfileVal function::0 - DISPLAY_PRICE - NO
21:33:25 - Return from CheckProfileVal function::0 - DISABLE_PRICE - YES
21:33:25 - Return from CheckProfileVal function::0 - DISPLAY_MILEAGE - NO
21:33:25 - Return from CheckProfileVal function::0 - DISPLAY_MILEAGE - NO
21:33:25 - Return from CheckProfileVal function::0 - DISPLAY_INFO - NO
21:33:25 - Return from CheckProfileVal function::0 - DISPLAY_INFO - NO
21:33:25 - Return from CheckProfileVal function::0 - DISPLAY_TITLE_WSNAME - NO
21:33:25 - Return from CheckProfileVal function::0 - DISPLAY_TITLE_WSNAME - NO
21:33:25 - Return from CheckProfileVal function::0 - DISPLAY_ALL_OVERLAYS - NO
21:33:25 - Return from CheckProfileVal function::0 - DISPLAY_ALL_OVERLAYS - NO
21:33:25 - Return from CheckProfileVal function::0 - DISPLAY_MAP - NO
21:33:25 - Return from CheckProfileVal function::0 - DISPLAY_MAP - NO
21:33:25 - =========THEME STYLE-FONT :Ren - Din  ============
21:33:25 - /usr/bin/sox  /var/app/video_pre_processor/assets/music/silence_3.wav /var/www/html/clients/108595/audio/9CADDB55-A8D7-0812-539C-1AB6D078B66A.wav /var/www/html/clients/108595/audio/9CADDB55-A8D7-0812-539C-1AB6D078B66A_info_audio.wav
21:33:25 - /var/app/video_pre_processor/assets/vidbot/_files/audio/Concept5.mp3 PlayTime:546.74
21:33:25 - Return from CheckProfileVal function::0 - BG_MUSIC_OVER_ALL_CLIPS - YES
21:33:25 - Return from CheckProfileVal function::0 - BG_MUSIC_OVER_ALL_CLIPS - YES
21:33:25 - AUDIO TIMER: 
{"INTRO":0,"YEAR":1.96,"MODEL":3.59,"HIGH":4.3,"PRICE":13.7,"MILE":16.7,"ALL_OPTIONS":{"* General Options Intro":20.15,"Back-Up Camera":22.5,"Steering wheel audio controls":23.78,"Power Passenger Seat":25.950000000000003,"ANTI-LOCK BRAKING SYSTEM":27.28,"Stability Control":28.98,"Lane Departure Warning":30.23,"Power Liftgate":31.67,"Bluetooth":32.870000000000005,"Leather Wrapped Steering Wheel":33.910000000000004,"Driver Air Bag":35.74},"OPTIONS":22.15,"OPTIONS_AUD_LENGTH":16.88,"ENDFILE":37.02}
21:33:25 - ===================ClipsGen END  ======================== 

21:33:25 - INFO:: VIDEO JSON : "9CADDB55-A8D7-0812-539C-1AB6D078B66A.json"
21:33:25 - node /var/app/Vidbot-V2/dist/vidbot.js --input /var/www/html/clients/108595/video/9CADDB55-A8D7-0812-539C-1AB6D078B66A.json --log debug > /var/www/html/clients/108595/video/9CADDB55-A8D7-0812-539C-1AB6D078B66A.log