21:22:26 - Return from CheckProfileVal function::0 - BG_MUSIC_OVER_ALL_CLIPS - YES
21:22:26 - AUDIO TIMER: 
{"INTRO":0,"YEAR":2.85,"MODEL":4.73,"HIGH":5.83,"PRICE":14.66,"ALL_OPTIONS":{"* General Options Intro":17.48,"Back-Up Camera":19.830000000000002,"Steering wheel audio controls":21.110000000000003,"Keyless Entry":23.28,"LED Headlights":24.51,"ANTI-LOCK BRAKING SYSTEM":26.07,"Stability Control":27.77,"Remote Start":29.02,"Remote Engine Start":30.22,"Heated Seats":31.66,"Traction Control":32.63},"OPTIONS":19.48,"OPTIONS_AUD_LENGTH":16.45,"ENDFILE":33.940000000000005}
21:22:26 - ===================ClipsGen END  ======================== 

21:22:26 - INFO:: VIDEO JSON : "F017BE19-C3E3-4351-0C09-7B0CD5CFEC92.json"
21:22:26 - node /var/app/Vidbot-V2/dist/vidbot.js --input /var/www/html/clients/107758/video/F017BE19-C3E3-4351-0C09-7B0CD5CFEC92.json --log debug > /var/www/html/clients/107758/video/F017BE19-C3E3-4351-0C09-7B0CD5CFEC92.log
21:28:19 - Generated Video File./var/www/html/clients/107758/video/F017BE19-C3E3-4351-0C09-7B0CD5CFEC92.mp4
21:28:19 - INFO:: Generated Video File./var/www/html/clients/107758/video/F017BE19-C3E3-4351-0C09-7B0CD5CFEC92.mp4
21:28:19 - INFO:: Sprite & Bookmark Option(s) not enabled
21:28:19 - ================VIDEO JSON GEN END RETURN VALUE : 1 ============== 
21:28:19 - ================CREATE VIDEO END =========== 
 ERROR : { 0}
21:28:19 - Start Time:0
21:28:19 - 0##2.85##Looking for the right vehicle? Check out
21:28:19 - 2.85##4.73##The 2024
21:28:19 - 4.73##5.83##Accord Hybrid
21:28:19 - 5.83##14.66##Honda Accord Hybrid is a thrusty midrange punch about 600 miles on a tankful comfy space for five a hushed voice.
21:28:19 - 14.66##17.48##and it is priced below $40000
21:28:19 - Replacing VTT String * General Options Intro to Here are some of this Vehicle's great options
21:28:19 - 17.48##19.83##Here are some of this Vehicle's great options
21:28:19 - 19.83##21.11##Back-Up Camera
21:28:19 - 21.11##23.28##Steering wheel audio controls
21:28:19 - 23.28##24.51##Keyless Entry
21:28:19 - 24.51##26.07##LED Headlights
21:28:19 - 26.07##27.77##ANTI-LOCK BRAKING SYSTEM
21:28:19 - 27.77##29.02##Stability Control
21:28:19 - 29.02##30.22##Remote Start
21:28:19 - 30.22##31.66##Remote Engine Start
21:28:19 - 31.66##32.63##Heated Seats
21:28:19 - 32.63##33.94##Traction Control
21:28:19 - 33.94##42.04##If affordable style and reliability are what you're looking for this vehicle couldn't be more perfect.  Drive it today!
21:28:19 - Curl Response - {"error":"Video key not found [F017BE19-C3E3-4351-0C09-7B0CD5CFEC92]"}
21:28:19 - Contents - /postVTTString/ -  - 
0##2.85##Looking for the right vehicle? Check out|||2.85##4.73##The 2024|||4.73##5.83##Accord Hybrid|||5.83##14.66##Honda Accord Hybrid is a thrusty midrange punch about 600 miles on a tankful comfy space for five a hushed voice.|||14.66##17.48##and it is priced below $40000|||17.48##19.83##Here are some of this Vehicle's great options|||19.83##21.11##Back-Up Camera|||21.11##23.28##Steering wheel audio controls|||23.28##24.51##Keyless Entry|||24.51##26.07##LED Headlights|||26.07##27.77##ANTI-LOCK BRAKING SYSTEM|||27.77##29.02##Stability Control|||29.02##30.22##Remote Start|||30.22##31.66##Remote Engine Start|||31.66##32.63##Heated Seats|||32.63##33.94##Traction Control|||33.94##42.04##If affordable style and reliability are what you're looking for this vehicle couldn't be more perfect.  Drive it today!
21:28:19 - VIDEO JSON GEN RETURN VALUE: - 0
21:28:19 - update message_remote_queue set error=0, video = 1, error_message = concat( "", error_message ), process_start = '2024-06-24 21:22:22', audio_process_start = '2024-06-24 21:22:22', audio_process_end = '2024-06-24 21:22:26', video_process_start ='2024-06-24 21:22:26', video_process_end='2024-06-24 21:28:19' where queue_id = 306717
21:28:19 - ==37 - 1 Elapsed Time 357.91 ==

21:28:19 - update queue_status set stat_last_update=NOW(), type_cnt = 37, type_loop_cnt = 365 where type_val = 'V14'
21:28:20 - Curl Response - {"code":200,"status":"Success:PostServerProcessDetails Posted For IP [209.59.156.167] and Process [V14]"}
21:28:20 - Contents - /postServerProcessDetails/ - Success:PostServerProcessDetails Posted For IP [209.59.156.167] and Process [V14] - 200
21:28:20 - update queue_status set stat_last_update=NOW(), type_cnt = 37, type_loop_cnt = 365 where type_val = 'V14'
21:28:20 - Curl Response - {"code":200,"status":"Success:PostServerProcessDetails Posted For IP [209.59.156.167] and Process [V14]"}
21:28:20 - Contents - /postServerProcessDetails/ - Success:PostServerProcessDetails Posted For IP [209.59.156.167] and Process [V14] - 200
21:28:20 - ========== 37  - 232 mins 376.87864864865 Video Process / Start:2024-06-24 16:12:02 / Mod:13/16======
21:28:21 - Fetching  Video Jobs Mod Val : 13 Mod Limit : 16 Queue ID : 0 

21:28:21 - ========select * from message_remote_queue, hvo_data where queue_id%16 = 13 and image = 1 and video = 0 and error = 0 and hvo_queue_id = queue_id   order by high_priority_row desc, queue_id asc limit 1==================count =1
21:28:21 - Processing Auto VideoFKEY:0374E00D-F7E6-7F63-303A-BCF07192F02B - QueueID:306733 
21:28:21 - CLIENT INFO  CLIENT_FK  : 18093533-F350-6BCE-E100-E49AAE7DE1D2 ,CLIENT_INFO :{"client_id":"107808","client_fk":"18093533-F350-6BCE-E100-E49AAE7DE1D2","client_rftp_id":"2254077","client_ilot_id":"3075966","client_cc_id":"11521","client_name":"Gator Chrysler Dodge Jeep","client_active":"1","client_regen":"0","client_desc":"","client_createdate":"2019-01-05 20:43:43","client_enddate":"","client_update":"2019-01-05 20:43:43","client_demo":"0","client_email_forward":"","client_salesperson_name":"","client_address":"840 S Harbor City Blvd","client_city":"Melbourne","client_state":"FL","client_zip":"32901","client_phone":"3217246611","client_url":"www.gatorchrysler.net","client_yt_uname":"","client_yt_pwd":"","client_md5":"6e3c979675c1a7ea82a567cadb3b7119","client_yt_verified":"0","client_yt_error":"0","client_video_size":"HDLARGE","client_tts_vm":"2","client_video_style":"RANDOM","client_mobile":"1","client_lat_lng":"","client_acc_id":"100000","SHOW_CARSTORY":"0"}
21:28:21 - Rest Call: /client/videoDetails/18093533-F350-6BCE-E100-E49AAE7DE1D2?video_key=0374E00D-F7E6-7F63-303A-BCF07192F02B
21:28:21 - Curl Response - {"vehicle_id":"24138378","vehicle_client_id":"107808","vehicle_fkey":"0374E00D-F7E6-7F63-303A-BCF07192F02B","vehicle_uid":"1291499366","vehicle_vin":"1FMJK2AT5NEA06692","vehicle_stock":"J24182A","vehicle_year":"2022","vehicle_make":"Ford","vehicle_model":"Expedition Max","vehicle_trim":"Limited","vehicle_price":"56895","vehicle_mileage":"28818","vehicle_int_color":"","vehicle_ext_color":"Black","vehicle_body_type":"Sport Utility","vehicle_listing_type":"Used","vehicle_citympg":"16","vehicle_hwympg":"22","vehicle_combmpg":"","vehicle_cylinders":"6","vehicle_engine_size":"3.5 L","vehicle_trans":"Automatic","vehicle_drivetrain":"4WD","vehicle_passengers":"0","vehicle_doors":"4","vehicle_certified":"0","vehicle_special":"0","vehicle_options":"ENGINE: 3.5L ECOBOOST V6  (STD),Turbocharged,Four Wheel Drive,Tow Hitch,Power Steering,ABS,4-Wheel Disc Brakes,Brake Assist,Aluminum Wheels,Tires - Front Performance,Tires - Rear Performance,Conventional Spare Tire,Sun\/Moonroof,Generic Sun\/Moonroof,Panoramic Roof,Tow Hooks,Heated Mirrors,Power Mirror(s),Integrated Turn Signal Mirrors,Power Folding Mirrors,Rear Defrost,Privacy Glass,Intermittent Wipers,Variable Speed Intermittent Wipers,Rain Sensing Wipers,Rear Spoiler,Running Boards\/Side Steps,Remote Trunk Release,Power Liftgate,Power Door Locks,Daytime Running Lights,Automatic Headlights,LED Headlights,Automatic Highbeams,Fog Lamps,AM\/FM Stereo,Premium Sound System,Satellite Radio,MP3 Player,Auxiliary Audio Input,HD Radio,Requires Subscription,MP3 Player,Steering Wheel Audio Controls,Auxiliary Audio Input,Satellite Radio,HD Radio,Requires Subscription,MP3 Player,Bluetooth Connection,Telematics,Auxiliary Audio Input,WiFi Hotspot,Smart Device Integration,Requires Subscription,Bluetooth Connection,Bucket Seats,Rear Bucket Seats,Heated Rear Seat(s),Adjustable Steering Wheel,Trip Computer,Power Windows,WiFi Hotspot,3rd Row Seat,Leather Steering Wheel,Heated Steering Wheel,Keyless Entry,Power Door Locks,Keyless Entry,Power Door Locks,Keyless Start,Remote Trunk Release,Hands-Free Liftgate,Universal Garage Door Opener,Cruise Control,Adaptive Cruise Control,Climate Control,Multi-Zone A\/C,A\/C,A\/C,Rear A\/C,Woodgrain Interior Trim,3rd Row Seat,Power Driver Seat,Power Passenger Seat,Leather Seats,Bucket Seats,Heated Front Seat(s),Driver Adjustable Lumbar,Passenger Adjustable Lumbar,Seat Memory,Cooled Front Seat(s),Driver Vanity Mirror,Passenger Vanity Mirror,Driver Illuminated Vanity Mirror,Passenger Illuminated Visor Mirror,Auto-Dimming Rearview Mirror,Floor Mats,Remote Engine Start,Navigation System,Smart Device Integration,Mirror Memory,Remote Engine Start,Keyless Start,Automatic Parking,Power Door Locks,Adjustable Pedals,Power Windows,Trip Computer,Mirror Memory,Security System,Immobilizer,Cruise Control Steering Assist,Traction Control,Stability Control,Traction Control,Front Side Air Bag,Blind Spot Monitor,Lane Departure Warning,Lane Keeping Assist,Lane Departure Warning,Front Collision Mitigation,Driver Monitoring,Telematics,Requires Subscription,Cross-Traffic Alert,Tire Pressure Monitor,Driver Air Bag,Passenger Air Bag,Front Head Air Bag,Rear Head Air Bag,Passenger Air Bag Sensor,Driver Restriction Features,Child Safety Locks,Back-Up Camera","vehicle_desc":"Check out this 2022 Ford Expedition Max Limited. Its Automatic transmission and Twin Turbo Premium Unleaded V-6 3.5 L\/213 engine will keep you going. This Ford Expedition Max features the following options: ENGINE: 3.5L ECOBOOST V6 (STD), Wireless Phone Connectivity, Window Grid Antenna, Wheels: 20 Bright Machined Aluminum -inc: dark carbonized gray-painted pockets, Trunk\/Hatch Auto-Latch, Trip Computer, Transmission: 10-Speed Automatic w\/SelectShift, Transmission w\/Driver Selectable Mode and Oil Cooler, Trailer Wiring Harness, and Tracker System.","vehicle_img_url":"https:\/\/content.homenetiol.com\/2000150\/2065303\/640x480\/ab1de9e09f1b4a05bfe3ff62db650b6d.jpg,https:\/\/content.homenetiol.com\/2000150\/2065303\/640x480\/1ee29b7fe26d4b6397a920fa1134a40a.jpg,https:\/\/content.homenetiol.com\/2000150\/2065303\/640x480\/0df3af05799a4859a1dc82f3e0314898.jpg,https:\/\/content.homenetiol.com\/2000150\/2065303\/640x480\/36ff62432c3b4625a2f0b74e974fcea6.jpg,https:\/\/content.homenetiol.com\/2000150\/2065303\/640x480\/95b564d3e30244ed9f75a0acd06dbdd2.jpg,https:\/\/content.homenetiol.com\/2000150\/2065303\/640x480\/c1bcefc9980a43c89885e1fba0ae99dc.jpg,https:\/\/content.homenetiol.com\/2000150\/2065303\/640x480\/289265cfb7324364a5e110d1889466ff.jpg,https:\/\/content.homenetiol.com\/2000150\/2065303\/640x480\/95e79f0f630244f4a497c9733649e355.jpg,https:\/\/content.homenetiol.com\/2000150\/2065303\/640x480\/00c0a602b5974aaaa7661c6559b866a3.jpg,https:\/\/content.homenetiol.com\/2000150\/2065303\/640x480\/be7fe7cd4e4f4eb0ae7a57d5fe17313b.jpg,https:\/\/content.homenetiol.com\/2000150\/2065303\/640x480\/69ea7c1dd2114ecc8f86e039c3fb0238.jpg,https:\/\/content.homenetiol.com\/2000150\/2065303\/640x480\/1ae158c96512485692677c2d5b54b941.jpg,https:\/\/content.homenetiol.com\/2000150\/2065303\/640x480\/c34c2bf817404491a6ba1c00ea5497a1.jpg,https:\/\/content.homenetiol.com\/2000150\/2065303\/640x480\/10f7899215654bbc8b3658fdcea18dc8.jpg,https:\/\/content.homenetiol.com\/2000150\/2065303\/640x480\/7f11efd702bb475485a730538f9da596.jpg,https:\/\/content.homenetiol.com\/2000150\/2065303\/640x480\/1c674266ef7942c5a400f674d6871e14.jpg,https:\/\/content.homenetiol.com\/2000150\/2065303\/640x480\/1381478092aa418fb8a3b8c774faa375.jpg,https:\/\/content.homenetiol.com\/2000150\/2065303\/640x480\/ffbd10cf841d453fabb75136588880e9.jpg,https:\/\/content.homenetiol.com\/2000150\/2065303\/640x480\/784da3af9dc742b1a4b907e60a34b668.jpg,https:\/\/content.homenetiol.com\/2000150\/2065303\/640x480\/ebf58d6992a547abbd2efe45d0fab145.jpg","vehicle_overlay_time":"","vehicle_tts_text":"","vehicle_img_cnt":"","veh_more_info":"","vehicle_create_date":"2024-06-24 20:42:46","vehicle_updated_date":"","vehicle_last_update":"2024-06-24 20:42:46","vehicle_md5":"7825e5749324693e3d84d90444416c48","vehicle_status":"N","vehicle_view_cnt":"0","vehicle_url":"","vehicle_murl":"","vehicle_https_url":"","vehicle_delete_flag":"0","vehicle_delete_time":"","yt_url":"","yt_key":"","yt_created_on":"","cf_url":"","cf_xml":""}
21:28:21 - Rest Call: /client/getAudioVideoConfig/18093533-F350-6BCE-E100-E49AAE7DE1D2?listing_type=Used&video_type=Auto&certified=0&vehicle_make=Ford
21:28:21 - Curl Response - {"BG_MUSIC":"Jazz_30","THEME_BG_COLOR":"ffffff","THEME_ACCENTS_COLOR":"532380","THEME_FONT_COLOR":"444444","THEME_FONT":"Din","THEME_STYLE":"Ren","BG_VOL_LEVEL":"0.25","AUDIO_VO":"","VIDEO_SIZE":"VIDEO_LARGE","CUSTOM_INTRO":"","CUSTOM_OUTRO":"","THEME_KEY":"100000_0_Auto_Default_0_ALL","THEME_RANK":"2","THEME_CONFIG":"RESELLER_CONFIG","OLD_BG_STYLE":"0"}
21:28:21 - Return from CheckProfileVal function::0 - DISABLE_PRICE - YES
21:28:21 - Return from CheckProfileVal function::0 - DISABLE_MILEAGE - YES
21:28:21 - Return from CheckProfileVal function::0 - DISABLE_CARSTORY - YES
21:28:21 - Config Information for 0374E00D-F7E6-7F63-303A-BCF07192F02B - Width:640 - CPO:0/0 - CF: - CS:0  - Intro: - Outro: - Ovleray: -THEME:100000_0_Auto_Default_0_ALL
21:28:21 - https://content.homenetiol.com/2000150/2065303/640x480/ab1de9e09f1b4a05bfe3ff62db650b6d.jpg /var/www/html/clients/107808/images/0374E00D-F7E6-7F63-303A-BCF07192F02B_1.jpg
21:28:21 - https://content.homenetiol.com/2000150/2065303/640x480/1ee29b7fe26d4b6397a920fa1134a40a.jpg /var/www/html/clients/107808/images/0374E00D-F7E6-7F63-303A-BCF07192F02B_2.jpg
21:28:21 - https://content.homenetiol.com/2000150/2065303/640x480/0df3af05799a4859a1dc82f3e0314898.jpg /var/www/html/clients/107808/images/0374E00D-F7E6-7F63-303A-BCF07192F02B_3.jpg
21:28:21 - https://content.homenetiol.com/2000150/2065303/640x480/36ff62432c3b4625a2f0b74e974fcea6.jpg /var/www/html/clients/107808/images/0374E00D-F7E6-7F63-303A-BCF07192F02B_4.jpg
21:28:21 - https://content.homenetiol.com/2000150/2065303/640x480/95b564d3e30244ed9f75a0acd06dbdd2.jpg /var/www/html/clients/107808/images/0374E00D-F7E6-7F63-303A-BCF07192F02B_5.jpg
21:28:21 - https://content.homenetiol.com/2000150/2065303/640x480/c1bcefc9980a43c89885e1fba0ae99dc.jpg /var/www/html/clients/107808/images/0374E00D-F7E6-7F63-303A-BCF07192F02B_6.jpg
21:28:21 - https://content.homenetiol.com/2000150/2065303/640x480/289265cfb7324364a5e110d1889466ff.jpg /var/www/html/clients/107808/images/0374E00D-F7E6-7F63-303A-BCF07192F02B_7.jpg
21:28:21 - https://content.homenetiol.com/2000150/2065303/640x480/95e79f0f630244f4a497c9733649e355.jpg /var/www/html/clients/107808/images/0374E00D-F7E6-7F63-303A-BCF07192F02B_8.jpg
21:28:21 - https://content.homenetiol.com/2000150/2065303/640x480/00c0a602b5974aaaa7661c6559b866a3.jpg /var/www/html/clients/107808/images/0374E00D-F7E6-7F63-303A-BCF07192F02B_9.jpg
21:28:21 - https://content.homenetiol.com/2000150/2065303/640x480/be7fe7cd4e4f4eb0ae7a57d5fe17313b.jpg /var/www/html/clients/107808/images/0374E00D-F7E6-7F63-303A-BCF07192F02B_10.jpg
21:28:21 - https://content.homenetiol.com/2000150/2065303/640x480/69ea7c1dd2114ecc8f86e039c3fb0238.jpg /var/www/html/clients/107808/images/0374E00D-F7E6-7F63-303A-BCF07192F02B_11.jpg
21:28:21 - https://content.homenetiol.com/2000150/2065303/640x480/1ae158c96512485692677c2d5b54b941.jpg /var/www/html/clients/107808/images/0374E00D-F7E6-7F63-303A-BCF07192F02B_12.jpg
21:28:21 - https://content.homenetiol.com/2000150/2065303/640x480/c34c2bf817404491a6ba1c00ea5497a1.jpg /var/www/html/clients/107808/images/0374E00D-F7E6-7F63-303A-BCF07192F02B_13.jpg
21:28:21 - https://content.homenetiol.com/2000150/2065303/640x480/10f7899215654bbc8b3658fdcea18dc8.jpg /var/www/html/clients/107808/images/0374E00D-F7E6-7F63-303A-BCF07192F02B_14.jpg
21:28:21 - https://content.homenetiol.com/2000150/2065303/640x480/7f11efd702bb475485a730538f9da596.jpg /var/www/html/clients/107808/images/0374E00D-F7E6-7F63-303A-BCF07192F02B_15.jpg
21:28:21 - https://content.homenetiol.com/2000150/2065303/640x480/1c674266ef7942c5a400f674d6871e14.jpg /var/www/html/clients/107808/images/0374E00D-F7E6-7F63-303A-BCF07192F02B_16.jpg
21:28:21 - https://content.homenetiol.com/2000150/2065303/640x480/1381478092aa418fb8a3b8c774faa375.jpg /var/www/html/clients/107808/images/0374E00D-F7E6-7F63-303A-BCF07192F02B_17.jpg
21:28:21 - https://content.homenetiol.com/2000150/2065303/640x480/ffbd10cf841d453fabb75136588880e9.jpg /var/www/html/clients/107808/images/0374E00D-F7E6-7F63-303A-BCF07192F02B_18.jpg
21:28:21 - https://content.homenetiol.com/2000150/2065303/640x480/784da3af9dc742b1a4b907e60a34b668.jpg /var/www/html/clients/107808/images/0374E00D-F7E6-7F63-303A-BCF07192F02B_19.jpg
21:28:21 - https://content.homenetiol.com/2000150/2065303/640x480/ebf58d6992a547abbd2efe45d0fab145.jpg /var/www/html/clients/107808/images/0374E00D-F7E6-7F63-303A-BCF07192F02B_20.jpg
21:28:21 - Image Count 20
21:28:21 - Setting Female English VO Constants | 0 | 0
21:28:21 - ====HVO Value:1, Audio Value:0===
21:28:21 - Return from CheckProfileVal function::0 - AUDIO_INTRO - 
21:28:21 - Return from CheckProfileVal function::0 - AUDIO_OUTRO - 
21:28:21 - ================Process HVO=========== 
 1
21:28:21 - ================CLIENT SELECT TTS VM VALUE=========== 
 2
21:28:21 - 2 - 2 - /var/app/video_pre_processor/assets/hvo/
21:28:21 - Setting Female English VO Constants | 0 | 2
21:28:21 - HVO Soap Call Method - AudoListWMIE 

21:28:21 - Getting Text For Audio Files
21:28:21 - HVO Soap Call Method - AudoListTWMIE 

21:28:21 - Getting Text For Audio Files emotionalFile 13
21:28:22 - HVO Soap Call Method - GetTTScripts 

21:28:22 - Getting Text For Audio Files introEmotionalFile 20
21:28:22 - HVO Soap Call Method - GetTTScripts 

21:28:22 - Getting Text For Audio Files scriptFile 24
21:28:22 - HVO Soap Call Method - GetTTScripts 

21:28:22 - ================TTS VM VALUE=========== 
 2
21:28:22 - ================GetVOFiles=========== 
 {"OptionFiles":[{"option_str":"* General Options Intro","option_file":"http:\/\/hvo.flickfusion.net\/audio\/options\/options_fe_audio_file_55.mp3","option_saftey":1},{"option_str":"Back-Up Camera","option_file":"http:\/\/hvo.flickfusion.net\/audio\/options\/options_fe_audio_file_337.mp3","option_saftey":1},{"option_str":"Power Liftgate","option_file":"http:\/\/hvo.flickfusion.net\/audio\/options\/options_fe_audio_file_238.mp3","option_saftey":1},{"option_str":"Keyless Entry","option_file":"http:\/\/hvo.flickfusion.net\/audio\/options\/options_fe_audio_file_202.mp3","option_saftey":1},{"option_str":"Keyless Entry","option_file":"http:\/\/hvo.flickfusion.net\/audio\/options\/options_fe_audio_file_202.mp3","option_saftey":1},{"option_str":"Power Passenger Seat","option_file":"http:\/\/hvo.flickfusion.net\/audio\/options\/options_fe_audio_file_242.mp3","option_saftey":1},{"option_str":"Steering wheel audio controls","option_file":"http:\/\/hvo.flickfusion.net\/audio\/options\/options_fe_audio_file_296.mp3","option_saftey":1},{"option_str":"Remote Engine Start","option_file":"http:\/\/hvo.flickfusion.net\/audio\/options\/options_fe_audio_file_272.mp3","option_saftey":1},{"option_str":"Remote Engine Start","option_file":"http:\/\/hvo.flickfusion.net\/audio\/options\/options_fe_audio_file_272.mp3","option_saftey":1},{"option_str":"LED Headlights","option_file":"http:\/\/hvo.flickfusion.net\/audio\/options\/options_fe_audio_file_1349.mp3","option_saftey":1},{"option_str":"Power Liftgate","option_file":"http:\/\/hvo.flickfusion.net\/audio\/options\/options_fe_audio_file_238.mp3","option_saftey":1},{"option_str":"Traction Control","option_file":"http:\/\/hvo.flickfusion.net\/audio\/options\/options_fe_audio_file_18.mp3","option_saftey":2},{"option_str":"Stability Control","option_file":"http:\/\/hvo.flickfusion.net\/audio\/options\/options_fe_audio_file_17.mp3","option_saftey":2},{"option_str":"Navigation System","option_file":"http:\/\/hvo.flickfusion.net\/audio\/options\/options_fe_audio_file_219.mp3","option_saftey":1},{"option_str":"ANTI-LOCK BRAKING SYSTEM","option_file":"http:\/\/hvo.flickfusion.net\/audio\/options\/options_fe_audio_file_70.mp3","option_saftey":1},{"option_str":"Lane Departure Warning","option_file":"http:\/\/hvo.flickfusion.net\/audio\/options\/options_fe_audio_file_1348.mp3","option_saftey":1},{"option_str":"TOW HITCH","option_file":"http:\/\/hvo.flickfusion.net\/audio\/options\/options_fe_audio_file_531.mp3","option_saftey":1},{"option_str":"Lane Departure Warning","option_file":"http:\/\/hvo.flickfusion.net\/audio\/options\/options_fe_audio_file_1348.mp3","option_saftey":1},{"option_str":"Traction Control","option_file":"http:\/\/hvo.flickfusion.net\/audio\/options\/options_fe_audio_file_18.mp3","option_saftey":2},{"option_str":"Leather Wrapped Steering Wheel","option_file":"http:\/\/hvo.flickfusion.net\/audio\/options\/options_fe_audio_file_207.mp3","option_saftey":1},{"option_str":"Bluetooth","option_file":"http:\/\/hvo.flickfusion.net\/audio\/options\/options_fe_audio_file_846.mp3","option_saftey":1},{"option_str":"Bluetooth","option_file":"http:\/\/hvo.flickfusion.net\/audio\/options\/options_fe_audio_file_846.mp3","option_saftey":1},{"option_str":"Power Steering","option_file":"http:\/\/hvo.flickfusion.net\/audio\/options\/options_fe_audio_file_244.mp3","option_saftey":1},{"option_str":"Adjustable Steering Wheel","option_file":"http:\/\/hvo.flickfusion.net\/audio\/options\/options_fe_audio_file_74.mp3","option_saftey":1},{"option_str":"Driver Air Bag","option_file":"http:\/\/hvo.flickfusion.net\/audio\/options\/options_fe_audio_file_148.mp3","option_saftey":1},{"option_str":"Four Wheel Drive","option_file":"http:\/\/hvo.flickfusion.net\/audio\/options\/options_fe_audio_file_173.mp3","option_saftey":1},{"option_str":"Cruise Control","option_file":"http:\/\/hvo.flickfusion.net\/audio\/options\/options_fe_audio_file_134.mp3","option_saftey":1},{"option_str":"AUTO-DIMMING REARVIEW MIRROR (PPO)","option_file":"http:\/\/hvo.flickfusion.net\/audio\/options\/options_fe_audio_file_436.mp3","option_saftey":1},{"option_str":"Aluminum Wheels","option_file":"http:\/\/hvo.flickfusion.net\/audio\/options\/options_fe_audio_file_83.mp3","option_saftey":1},{"option_str":"Keyless Start","option_file":"http:\/\/hvo.flickfusion.net\/audio\/options\/options_fe_audio_file_203.mp3","option_saftey":1},{"option_str":"4-Wheel Disc Brakes","option_file":"http:\/\/hvo.flickfusion.net\/audio\/options\/options_fe_audio_file_63.mp3","option_saftey":1},{"option_str":"Keyless Start","option_file":"http:\/\/hvo.flickfusion.net\/audio\/options\/options_fe_audio_file_203.mp3","option_saftey":1},{"option_str":"FLOOR MATS","option_file":"http:\/\/hvo.flickfusion.net\/audio\/options\/options_fe_audio_file_578.mp3","option_saftey":1},{"option_str":"Lane Keeping Assist","option_file":"","option_saftey":1},{"option_str":"power folding mirrors","option_file":"","option_saftey":1},{"option_str":"Universal Garage Door Opener","option_file":"http:\/\/hvo.flickfusion.net\/audio\/options\/options_fe_audio_file_323.mp3","option_saftey":1},{"option_str":"Rear Defrost","option_file":"http:\/\/hvo.flickfusion.net\/audio\/options\/options_fe_audio_file_259.mp3","option_saftey":1},{"option_str":"Premium Sound System","option_file":"http:\/\/hvo.flickfusion.net\/audio\/options\/options_fe_audio_file_248.mp3","option_saftey":1},{"option_str":"AM\/FM STEREO RADIO","option_file":"http:\/\/hvo.flickfusion.net\/audio\/options\/options_fe_audio_file_69.mp3","option_saftey":1},{"option_str":"Climate Control","option_file":"http:\/\/hvo.flickfusion.net\/audio\/options\/options_fe_audio_file_126.mp3","option_saftey":1},{"option_str":"Power Door Locks","option_file":"http:\/\/hvo.flickfusion.net\/audio\/options\/options_fe_audio_file_234.mp3","option_saftey":1},{"option_str":"Power Door Locks","option_file":"http:\/\/hvo.flickfusion.net\/audio\/options\/options_fe_audio_file_234.mp3","option_saftey":1},{"option_str":"Power Windows","option_file":"http:\/\/hvo.flickfusion.net\/audio\/options\/options_fe_audio_file_2.mp3","option_saftey":1},{"option_str":"Trip Computer","option_file":"http:\/\/hvo.flickfusion.net\/audio\/options\/options_fe_audio_file_321.mp3","option_saftey":1},{"option_str":"Bucket Seats","option_file":"http:\/\/hvo.flickfusion.net\/audio\/options\/options_fe_audio_file_107.mp3","option_saftey":1},{"option_str":"Power Door Locks","option_file":"http:\/\/hvo.flickfusion.net\/audio\/options\/options_fe_audio_file_234.mp3","option_saftey":1},{"option_str":"MP3 Player","option_file":"http:\/\/hvo.flickfusion.net\/audio\/options\/options_fe_audio_file_211.mp3","option_saftey":1},{"option_str":"MP3 Player","option_file":"http:\/\/hvo.flickfusion.net\/audio\/options\/options_fe_audio_file_211.mp3","option_saftey":1},{"option_str":"Fog Lamps","option_file":"http:\/\/hvo.flickfusion.net\/audio\/options\/options_fe_audio_file_171.mp3","option_saftey":1},{"option_str":"MP3 Player","option_file":"http:\/\/hvo.flickfusion.net\/audio\/options\/options_fe_audio_file_211.mp3","option_saftey":1},{"option_str":"HEATED STEERING WHEEL ","option_file":"http:\/\/hvo.flickfusion.net\/audio\/options\/options_fe_audio_file_839.mp3","option_saftey":1},{"option_str":"Bucket Seats","option_file":"http:\/\/hvo.flickfusion.net\/audio\/options\/options_fe_audio_file_107.mp3","option_saftey":1},{"option_str":"SECURITY SYSTEM","option_file":"http:\/\/hvo.flickfusion.net\/audio\/options\/options_fe_audio_file_996.mp3","option_saftey":1},{"option_str":"Child Safety Locks","option_file":"http:\/\/hvo.flickfusion.net\/audio\/options\/options_fe_audio_file_122.mp3","option_saftey":1},{"option_str":"Power Door Locks","option_file":"http:\/\/hvo.flickfusion.net\/audio\/options\/options_fe_audio_file_234.mp3","option_saftey":1},{"option_str":"Passenger Air Bag","option_file":"http:\/\/hvo.flickfusion.net\/audio\/options\/options_fe_audio_file_228.mp3","option_saftey":1},{"option_str":"Trip Computer","option_file":"http:\/\/hvo.flickfusion.net\/audio\/options\/options_fe_audio_file_321.mp3","option_saftey":1},{"option_str":"Power Windows","option_file":"http:\/\/hvo.flickfusion.net\/audio\/options\/options_fe_audio_file_2.mp3","option_saftey":1},{"option_str":"Auxiliary Audio Input","option_file":"http:\/\/hvo.flickfusion.net\/audio\/options\/options_fe_audio_file_95.mp3","option_saftey":1},{"option_str":"Satellite Radio","option_file":"http:\/\/hvo.flickfusion.net\/audio\/options\/options_fe_audio_file_279.mp3","option_saftey":1},{"option_str":"HD Radio","option_file":"http:\/\/hvo.flickfusion.net\/audio\/options\/options_fe_audio_file_452.mp3","option_saftey":1},{"option_str":"Seat Memory","option_file":"http:\/\/hvo.flickfusion.net\/audio\/options\/options_fe_audio_file_280.mp3","option_saftey":1},{"option_str":"Auxiliary Audio Input","option_file":"http:\/\/hvo.flickfusion.net\/audio\/options\/options_fe_audio_file_95.mp3","option_saftey":1},{"option_str":"Brake Assist","option_file":"http:\/\/hvo.flickfusion.net\/audio\/options\/options_fe_audio_file_104.mp3","option_saftey":1},{"option_str":"Daytime Running Lights","option_file":"http:\/\/hvo.flickfusion.net\/audio\/options\/options_fe_audio_file_142.mp3","option_saftey":1},{"option_str":"Satellite Radio","option_file":"http:\/\/hvo.flickfusion.net\/audio\/options\/options_fe_audio_file_279.mp3","option_saftey":1},{"option_str":"Leather Seats","option_file":"http:\/\/hvo.flickfusion.net\/audio\/options\/options_fe_audio_file_206.mp3","option_saftey":1},{"option_str":"Rear Head Air Bag","option_file":"http:\/\/hvo.flickfusion.net\/audio\/options\/options_fe_audio_file_261.mp3","option_saftey":1},{"option_str":"Rear A\/C","option_file":"http:\/\/hvo.flickfusion.net\/audio\/options\/options_fe_audio_file_257.mp3","option_saftey":1},{"option_str":"A\/C","option_file":"http:\/\/hvo.flickfusion.net\/audio\/options\/options_fe_audio_file_67.mp3","option_saftey":1},{"option_str":"A\/C","option_file":"http:\/\/hvo.flickfusion.net\/audio\/options\/options_fe_audio_file_67.mp3","option_saftey":1},{"option_str":"Auxiliary Audio Input","option_file":"http:\/\/hvo.flickfusion.net\/audio\/options\/options_fe_audio_file_95.mp3","option_saftey":1},{"option_str":"HD Radio","option_file":"http:\/\/hvo.flickfusion.net\/audio\/options\/options_fe_audio_file_452.mp3","option_saftey":1},{"option_str":"Remote Trunk Release","option_file":"http:\/\/hvo.flickfusion.net\/audio\/options\/options_fe_audio_file_275.mp3","option_saftey":1},{"option_str":"Passenger Illuminated Visor Mirror","option_file":"http:\/\/hvo.flickfusion.net\/audio\/options\/options_fe_audio_file_230.mp3","option_saftey":1},{"option_str":"Remote Trunk Release","option_file":"http:\/\/hvo.flickfusion.net\/audio\/options\/options_fe_audio_file_275.mp3","option_saftey":1},{"option_str":"Driver Illuminated Vanity Mirror","option_file":"http:\/\/hvo.flickfusion.net\/audio\/options\/options_fe_audio_file_149.mp3","option_saftey":1},{"option_str":"Driver Vanity Mirror","option_file":"http:\/\/hvo.flickfusion.net\/audio\/options\/options_fe_audio_file_152.mp3","option_saftey":1},{"option_str":"Panoramic Roof","option_file":"http:\/\/hvo.flickfusion.net\/audio\/options\/options_fe_audio_file_347.mp3","option_saftey":1},{"option_str":"Power Driver Seat","option_file":"http:\/\/hvo.flickfusion.net\/audio\/options\/options_fe_audio_file_237.mp3","option_saftey":1},{"option_str":"Passenger Vanity Mirror","option_file":"http:\/\/hvo.flickfusion.net\/audio\/options\/options_fe_audio_file_233.mp3","option_saftey":1},{"option_str":"Privacy Glass","option_file":"http:\/\/hvo.flickfusion.net\/audio\/options\/options_fe_audio_file_249.mp3","option_saftey":1},{"option_str":"Adjustable Pedals","option_file":"http:\/\/hvo.flickfusion.net\/audio\/options\/options_fe_audio_file_73.mp3","option_saftey":1},{"option_str":"Mirror Memory","option_file":"http:\/\/hvo.flickfusion.net\/audio\/options\/options_fe_audio_file_214.mp3","option_saftey":1},{"option_str":"Telematics","option_file":"http:\/\/hvo.flickfusion.net\/audio\/options\/options_fe_audio_file_303.mp3","option_saftey":1},{"option_str":"Telematics","option_file":"http:\/\/hvo.flickfusion.net\/audio\/options\/options_fe_audio_file_303.mp3","option_saftey":1},{"option_str":"Woodgrain Interior Trim","option_file":"http:\/\/hvo.flickfusion.net\/audio\/options\/options_fe_audio_file_335.mp3","option_saftey":1},{"option_str":"Integrated Turn Signal Mirrors","option_file":"http:\/\/hvo.flickfusion.net\/audio\/options\/options_fe_audio_file_198.mp3","option_saftey":1},{"option_str":"Rain Sensing Wipers","option_file":"http:\/\/hvo.flickfusion.net\/audio\/options\/options_fe_audio_file_254.mp3","option_saftey":1},{"option_str":"Turbocharged","option_file":"http:\/\/hvo.flickfusion.net\/audio\/options\/options_fe_audio_file_322.mp3","option_saftey":1},{"option_str":"Heated Mirrors","option_file":"http:\/\/hvo.flickfusion.net\/audio\/options\/options_fe_audio_file_7.mp3","option_saftey":1},{"option_str":"Mirror Memory","option_file":"http:\/\/hvo.flickfusion.net\/audio\/options\/options_fe_audio_file_214.mp3","option_saftey":1},{"option_str":"ADAPTIVE CRUISE CONTROL  ","option_file":"http:\/\/hvo.flickfusion.net\/audio\/options\/options_fe_audio_file_874.mp3","option_saftey":1},{"option_str":"Rear Spoiler","option_file":"http:\/\/hvo.flickfusion.net\/audio\/options\/options_fe_audio_file_10.mp3","option_saftey":1},{"option_str":"Tires - Front Performance","option_file":"http:\/\/hvo.flickfusion.net\/audio\/options\/options_fe_audio_file_311.mp3","option_saftey":1},{"option_str":"Tire Pressure Monitor","option_file":"http:\/\/hvo.flickfusion.net\/audio\/options\/options_fe_audio_file_36.mp3","option_saftey":2},{"option_str":"Tires - Rear Performance","option_file":"http:\/\/hvo.flickfusion.net\/audio\/options\/options_fe_audio_file_316.mp3","option_saftey":1},{"option_str":"Blind Spot Monitor","option_file":"http:\/\/hvo.flickfusion.net\/audio\/options\/options_fe_audio_file_1428.mp3","option_saftey":1},{"option_str":"Smart Device Integration","option_file":"http:\/\/hvo.flickfusion.net\/audio\/options\/options_fe_audio_file_1480.mp3","option_saftey":1},{"option_str":"Variable Speed Intermittent Wipers","option_file":"http:\/\/hvo.flickfusion.net\/audio\/options\/options_fe_audio_file_325.mp3","option_saftey":1},{"option_str":"WiFi Hotspot","option_file":"http:\/\/hvo.flickfusion.net\/audio\/options\/options_fe_audio_file_1501.mp3","option_saftey":1},{"option_str":"Smart Device Integration","option_file":"http:\/\/hvo.flickfusion.net\/audio\/options\/options_fe_audio_file_1480.mp3","option_saftey":1},{"option_str":"Rear Bucket Seats","option_file":"http:\/\/hvo.flickfusion.net\/audio\/options\/options_fe_audio_file_1471.mp3","option_saftey":1},{"option_str":"3RD ROW SEAT","option_file":"","option_saftey":1},{"option_str":"WiFi Hotspot","option_file":"http:\/\/hvo.flickfusion.net\/audio\/options\/options_fe_audio_file_1501.mp3","option_saftey":1},{"option_str":"3RD ROW SEAT","option_file":"","option_saftey":1},{"option_str":"Sun\/Moonroof","option_file":"http:\/\/hvo.flickfusion.net\/audio\/options\/options_fe_audio_file_1484.mp3","option_saftey":1}],"yearFile":"http:\/\/hvo.flickfusion.net\/audio\/year\/year_fe_audio_file_57.mp3","makeFile":"http:\/\/hvo.flickfusion.net\/audio\/makes\/make_name_fe_audio_file_14.mp3","modelFile":"http:\/\/hvo.flickfusion.net\/audio\/mdlnames\/model_name_fe_audio_file_25.mp3","modelHighlightFile":"http:\/\/hvo.flickfusion.net\/audio\/models\/model_fe_audio_file_25.mp3","styleFile":"","bodytypeFile":"","transFile":"http:\/\/hvo.flickfusion.net\/audio\/domain_transmission\/transmission_fe_audio_file_2.mp3","engineFile":"http:\/\/hvo.flickfusion.net\/audio\/domain_enginesize\/enginesize_fe_audio_file_7.mp3","cylindersFile":"http:\/\/hvo.flickfusion.net\/audio\/domain_cylinders\/cylinder_fe_audio_file_5.mp3","driveTrainFile":"http:\/\/hvo.flickfusion.net\/audio\/domain_drivetrain\/drivetrain_fe_audio_file_5.mp3","priceFile":"http:\/\/hvo.flickfusion.net\/audio\/prices\/price_fe_audio_file_20.mp3","mileageFile":"http:\/\/hvo.flickfusion.net\/audio\/mileage\/miles_fe_audio_file_7.mp3","carfaxFile":"","emotionalFile":"http:\/\/hvo.flickfusion.net\/audio\/emotional\/emotional_fe_audio_file_13.mp3","introEmotionalFile":"http:\/\/hvo.flickfusion.net\/audio\/emotional\/ie_fe_audio_file_20.mp3","scriptFile":"http:\/\/hvo.flickfusion.net\/audio\/domain_scripts\/script_fe_audio_file_24.mp3","statusCode":"1","statusMessage":"Audio Files Sent"}
21:28:22 - /var/www/html/clients/107808/audio/0374E00D-F7E6-7F63-303A-BCF07192F02B.wav
21:28:22 - ================Process HVO SOAP CALL CMD=========== 
 /usr/bin/sox
 STATUS CODE 
 1
21:28:22 - /var/app/video_pre_processor/assets/hvo/ie_fe_audio_file_20.wav PlayTime:1.57
21:28:22 - /var/app/video_pre_processor/assets/hvo/year_fe_audio_file_57.wav PlayTime:1.78
21:28:22 - /var/app/video_pre_processor/assets/hvo/model_name_fe_audio_file_25.wav PlayTime:1.02
21:28:22 - /var/app/video_pre_processor/assets/hvo/model_fe_audio_file_25.wav PlayTime:3.89
21:28:22 - Skipping VTT for BODY - bodytypeFile
21:28:22 - /var/app/video_pre_processor/assets/hvo/price_fe_audio_file_20.wav PlayTime:2.95
21:28:22 - KM Check : 28818 | 0
21:28:22 - /var/app/video_pre_processor/assets/hvo/miles_fe_audio_file_7.wav PlayTime:3.16
21:28:22 - Curl Response - {"error":"Vehicle options not found for vehicle key[0374E00D-F7E6-7F63-303A-BCF07192F02B]"}
21:28:22 - ============={"error":"Vehicle options not found for vehicle key[0374E00D-F7E6-7F63-303A-BCF07192F02B]"}===============
21:28:22 - Skipping Duplicate Option Keyless Entry
21:28:22 - Skipping Duplicate Option Remote Engine Start
21:28:22 - Skipping Duplicate Option Power Liftgate
21:28:22 - Skipping Duplicate Option Lane Departure Warning
21:28:22 - Skipping Duplicate Option Traction Control
21:28:22 - Skipping Duplicate Option Bluetooth
21:28:22 - Skipping Duplicate Option Keyless Start
21:28:22 - Skipping Duplicate Option Power Door Locks
21:28:22 - Skipping Duplicate Option Power Door Locks
21:28:22 - Skipping Duplicate Option MP3 Player
21:28:22 - Skipping Duplicate Option MP3 Player
21:28:22 - Skipping Duplicate Option Bucket Seats
21:28:22 - Skipping Duplicate Option Power Door Locks
21:28:22 - Skipping Duplicate Option Trip Computer
21:28:22 - Skipping Duplicate Option Power Windows
21:28:22 - Skipping Duplicate Option Auxiliary Audio Input
21:28:22 - Skipping Duplicate Option Satellite Radio
21:28:22 - Skipping Duplicate Option A/C
21:28:22 - Skipping Duplicate Option Auxiliary Audio Input
21:28:22 - Skipping Duplicate Option HD Radio
21:28:22 - Skipping Duplicate Option Remote Trunk Release
21:28:22 - Skipping Duplicate Option Telematics
21:28:22 - Skipping Duplicate Option Mirror Memory
21:28:22 - Skipping Duplicate Option Smart Device Integration
21:28:22 - Skipping Duplicate Option WiFi Hotspot
21:28:22 - Skipping Duplicate Option 3RD ROW SEAT
21:28:22 - /var/app/video_pre_processor/assets/hvo/options_fe_audio_file_55.wav PlayTime:2.35
21:28:22 - /var/app/video_pre_processor/assets/hvo/options_fe_audio_file_337.wav PlayTime:1.28
21:28:22 - /var/app/video_pre_processor/assets/hvo/options_fe_audio_file_238.wav PlayTime:1.2
21:28:22 - /var/app/video_pre_processor/assets/hvo/options_fe_audio_file_202.wav PlayTime:1.23
21:28:22 - /var/app/video_pre_processor/assets/hvo/options_fe_audio_file_242.wav PlayTime:1.33
21:28:22 - /var/app/video_pre_processor/assets/hvo/options_fe_audio_file_296.wav PlayTime:2.17
21:28:22 - /var/app/video_pre_processor/assets/hvo/options_fe_audio_file_272.wav PlayTime:1.44
21:28:22 - /var/app/video_pre_processor/assets/hvo/options_fe_audio_file_1349.wav PlayTime:1.56
21:28:22 - /var/app/video_pre_processor/assets/hvo/options_fe_audio_file_18.wav PlayTime:1.31
21:28:22 - /var/app/video_pre_processor/assets/hvo/options_fe_audio_file_17.wav PlayTime:1.25
21:28:22 - /var/app/video_pre_processor/assets/hvo/options_fe_audio_file_219.wav PlayTime:1.59
21:28:22 - ======= ALL Options  ========== 
null
21:28:22 - /var/www/html/clients/107808/audio/0374E00D-F7E6-7F63-303A-BCF07192F02B_option.wav
21:28:22 - /usr/bin/sox /var/app/video_pre_processor/assets/hvo/options_fe_audio_file_55.wav /var/app/video_pre_processor/assets/hvo/options_fe_audio_file_337.wav /var/app/video_pre_processor/assets/hvo/options_fe_audio_file_238.wav /var/app/video_pre_processor/assets/hvo/options_fe_audio_file_202.wav /var/app/video_pre_processor/assets/hvo/options_fe_audio_file_242.wav /var/app/video_pre_processor/assets/hvo/options_fe_audio_file_296.wav /var/app/video_pre_processor/assets/hvo/options_fe_audio_file_272.wav /var/app/video_pre_processor/assets/hvo/options_fe_audio_file_1349.wav /var/app/video_pre_processor/assets/hvo/options_fe_audio_file_18.wav /var/app/video_pre_processor/assets/hvo/options_fe_audio_file_17.wav /var/app/video_pre_processor/assets/hvo/options_fe_audio_file_219.wav /var/www/html/clients/107808/audio/0374E00D-F7E6-7F63-303A-BCF07192F02B_option.wav
21:28:22 - /var/www/html/clients/107808/audio/0374E00D-F7E6-7F63-303A-BCF07192F02B_option.wav PlayTime:16.71
21:28:22 - Skipping VTT for CARFAX - carfaxFile
21:28:22 - /var/app/video_pre_processor/assets/hvo/emotional_fe_audio_file_13.wav PlayTime:4.65
21:28:22 - /usr/bin/sox /var/app/video_pre_processor/assets/hvo/ie_fe_audio_file_20.wav /var/app/video_pre_processor/assets/hvo/year_fe_audio_file_57.wav /var/app/video_pre_processor/assets/hvo/model_name_fe_audio_file_25.wav /var/app/video_pre_processor/assets/hvo/model_fe_audio_file_25.wav /var/app/video_pre_processor/assets/hvo/price_fe_audio_file_20.wav /var/app/video_pre_processor/assets/hvo/miles_fe_audio_file_7.wav /var/www/html/clients/107808/audio/0374E00D-F7E6-7F63-303A-BCF07192F02B_option.wav /var/app/video_pre_processor/assets/hvo/emotional_fe_audio_file_13.wav /var/www/html/clients/107808/audio/0374E00D-F7E6-7F63-303A-BCF07192F02B_temp1.wav
21:28:22 - Return from CheckProfileVal function::0 - REPLACE_FULL_AUDIO - 
21:28:22 - Return from CheckProfileVal function::0 - REPLACE_FULL_AUDIO_NEW - 
21:28:22 - ========REPALCE AUDIO TRACK LISTING TYPE used \ n USED VALUE : 0 NEW AUDIO VALUE : { 0} ==============

21:28:22 - Video Length for audio merge: 0
21:28:22 - /root/bin/ffmpeg  -i /var/www/html/clients/107808/audio/0374E00D-F7E6-7F63-303A-BCF07192F02B.wav -f mp3 -ar 44100 -ab 320 -ac 2 -y /var/www/html/clients/107808/audio/0374E00D-F7E6-7F63-303A-BCF07192F02B.mp3
ffmpeg version N-109053-g9b13078c6a Copyright (c) 2000-2022 the FFmpeg developers
  built with gcc 5.4.0 (GCC)
  configuration: --prefix=/root/ffmpeg_build --pkg-config-flags=--static --extra-cflags=-I/root/ffmpeg_build/include --extra-ldflags=-L/root/ffmpeg_build/lib --extra-libs=-lpthread --extra-libs=-lm --bindir=/root/bin --enable-gpl --enable-libfdk_aac --enable-libfreetype --enable-libmp3lame --enable-libopus --enable-libvpx --enable-libx264 --enable-openssl --enable-libx265 --enable-nonfree --enable-libvidstab
  libavutil      57. 42.100 / 57. 42.100
  libavcodec     59. 52.101 / 59. 52.101
  libavformat    59. 34.101 / 59. 34.101
  libavdevice    59.  8.101 / 59.  8.101
  libavfilter     8. 50.100 /  8. 50.100
  libswscale      6.  8.112 /  6.  8.112
  libswresample   4.  9.100 /  4.  9.100
  libpostproc    56.  7.100 / 56.  7.100
Guessed Channel Layout for Input Stream #0.0 : stereo
Input #0, wav, from '/var/www/html/clients/107808/audio/0374E00D-F7E6-7F63-303A-BCF07192F02B.wav':
  Duration: 00:00:35.73, bitrate: 1411 kb/s
  Stream #0:0: Audio: pcm_s16le ([1][0][0][0] / 0x0001), 44100 Hz, 2 channels, s16, 1411 kb/s
Stream mapping:
  Stream #0:0 -> #0:0 (pcm_s16le (native) -> mp3 (libmp3lame))
Press [q] to stop, [?] for help
[libmp3lame @ 0x359c480] Bitrate 320 is extremely low, maybe you mean 320k
The bitrate parameter is set too low. It takes bits/s as argument, not kbits/s
Output #0, mp3, to '/var/www/html/clients/107808/audio/0374E00D-F7E6-7F63-303A-BCF07192F02B.mp3':
  Metadata:
    TSSE            : Lavf59.34.101
  Stream #0:0: Audio: mp3, 44100 Hz, stereo, s16p, 0 kb/s
    Metadata:
      encoder         : Lavc59.52.101 libmp3lame
size=       0kB time=-577014:32:22.77 bitrate=  -0.0kbits/s speed=N/A    
size=     106kB time=00:00:06.74 bitrate= 128.3kbits/s speed=13.5x    
size=     211kB time=00:00:13.50 bitrate= 128.1kbits/s speed=13.5x    
size=     256kB time=00:00:19.85 bitrate= 105.6kbits/s speed=13.2x    
size=     256kB time=00:00:26.59 bitrate=  78.9kbits/s speed=13.3x    
size=     512kB time=00:00:33.62 bitrate= 124.8kbits/s speed=13.4x    
size=     559kB time=00:00:35.71 bitrate= 128.2kbits/s speed=13.5x    
video:0kB audio:559kB subtitle:0kB other streams:0kB global headers:0kB muxing overhead: 0.044216%
21:28:25 - /var/app/video_pre_processor/assets/vidbot/_files/audio/Jazz_30.mp3 PlayTime:751.67
21:28:25 - Using Jazz_30.mp3 - /var/app/video_pre_processor/assets/vidbot/_files/audio/Jazz_30.mp3
21:28:25 - BG MUSIC FILE /var/app/video_pre_processor/assets/vidbot/_files/audio/Jazz_30.mp3 

21:28:25 - BG AUDIO CLIENT OVELAY VALUE : 0 

21:28:25 - /var/www/html/clients/107808/audio/0374E00D-F7E6-7F63-303A-BCF07192F02B.wav PlayTime:35.73
21:28:25 - VParent - VOLEN:37.73 | /var/www/html/clients/107808/audio/0374E00D-F7E6-7F63-303A-BCF07192F02B.mp3 | /var/app/video_pre_processor/assets/vidbot/_files/audio/Jazz_30.mp3 | /var/www/html/clients/107808/audio/0374E00D-F7E6-7F63-303A-BCF07192F02B.wav
21:28:25 - AUDIO PROCESS RETURN VALUE: - 1
21:28:25 - update message_remote_queue set video_process_start = '2024-06-24 21:28:25' where queue_id = 306733
21:28:25 - CLIENT INFO DATA 
{"client_id":"107808","client_fk":"18093533-F350-6BCE-E100-E49AAE7DE1D2","client_rftp_id":"2254077","client_ilot_id":"3075966","client_cc_id":"11521","client_name":"Gator Chrysler Dodge Jeep","client_active":"1","client_regen":"0","client_desc":"","client_createdate":"2019-01-05 20:43:43","client_enddate":"","client_update":"2019-01-05 20:43:43","client_demo":"0","client_email_forward":"","client_salesperson_name":"","client_address":"840 S Harbor City Blvd","client_city":"Melbourne","client_state":"FL","client_zip":"32901","client_phone":"3217246611","client_url":"www.gatorchrysler.net","client_yt_uname":"","client_yt_pwd":"","client_md5":"6e3c979675c1a7ea82a567cadb3b7119","client_yt_verified":"0","client_yt_error":"0","client_video_size":"HDLARGE","client_tts_vm":"2","client_video_style":"RANDOM","client_mobile":"1","client_lat_lng":"","client_acc_id":"100000","SHOW_CARSTORY":"0"}
21:28:25 - Map Exists: /var/www/html/clients/107808/library/map.jpg
21:28:25 - Checking CUSTOM_INTRO
21:28:25 - Checking CUSTOM_OUTRO
21:28:25 - ================CREATE VIDEO START =========== 

21:28:25 - ================VIDEO JSON GEN START ==============
21:28:25 - Video Size 360
21:28:25 - ===========Video Theme font ================Dinot
21:28:25 - ==========Video fk : ==============0374E00D-F7E6-7F63-303A-BCF07192F02B
21:28:25 - ==============AUDIO VIDEO CONFIG : =========={"BG_MUSIC":"Jazz_30","THEME_BG_COLOR":"ffffff","THEME_ACCENTS_COLOR":"532380","THEME_FONT_COLOR":"444444","THEME_FONT":"Dinot","THEME_STYLE":"Ren","BG_VOL_LEVEL":"0.25","AUDIO_VO":"","VIDEO_SIZE":"VIDEO_LARGE","CUSTOM_INTRO":"","CUSTOM_OUTRO":"","THEME_KEY":"100000_0_Auto_Default_0_ALL","THEME_RANK":"2","THEME_CONFIG":"RESELLER_CONFIG","OLD_BG_STYLE":"0"}
21:28:25 - CLIENT FKEY :  18093533-F350-6BCE-E100-E49AAE7DE1D2  VIDEO FKEY :  0374E00D-F7E6-7F63-303A-BCF07192F02B  VEHICLE FKEY :   
21:28:25 - INFO:: Video Type:SS Video Size:360 
21:28:25 - Return from CheckProfileVal function::0 - DISPLAY_MILEAGE - NO
21:28:25 - Return from CheckProfileVal function::0 - DISPLAY_MILEAGE - NO
21:28:25 - Return from CheckProfileVal function::0 - DISPLAY_PRICE - NO
21:28:25 - Return from CheckProfileVal function::0 - DISPLAY_PRICE - NO
21:28:25 - ==================ClipsGen START  =====================

21:28:25 - Return from CheckProfileVal function::0 - AUDIO_VO - NO_VO
21:28:25 - Return from CheckProfileVal function::0 - AUDIO_VO - NO_VO
21:28:25 - Return from CheckProfileVal function::0 - AUDIO_VO - LIVE_VO
21:28:25 - Return from CheckProfileVal function::0 - AUDIO_VO - LIVE_VO
21:28:25 - Return from CheckProfileVal function::0 - DISPLAY_OPTIONS - NO
21:28:25 - Return from CheckProfileVal function::0 - DISPLAY_OPTIONS - NO
21:28:25 - Return from CheckProfileVal function::0 - DISPLAY_PRICE - NO
21:28:25 - Return from CheckProfileVal function::0 - DISPLAY_PRICE - NO
21:28:25 - Return from CheckProfileVal function::0 - DISABLE_PRICE - YES
21:28:25 - Return from CheckProfileVal function::0 - DISPLAY_MILEAGE - NO
21:28:25 - Return from CheckProfileVal function::0 - DISPLAY_MILEAGE - NO
21:28:25 - Return from CheckProfileVal function::0 - DISPLAY_INFO - NO
21:28:25 - Return from CheckProfileVal function::0 - DISPLAY_INFO - NO
21:28:25 - Return from CheckProfileVal function::0 - DISPLAY_TITLE_WSNAME - NO
21:28:25 - Return from CheckProfileVal function::0 - DISPLAY_TITLE_WSNAME - NO
21:28:25 - Return from CheckProfileVal function::0 - DISPLAY_ALL_OVERLAYS - NO
21:28:25 - Return from CheckProfileVal function::0 - DISPLAY_ALL_OVERLAYS - NO
21:28:25 - Return from CheckProfileVal function::0 - DISPLAY_MAP - NO
21:28:25 - Return from CheckProfileVal function::0 - DISPLAY_MAP - NO
21:28:25 - =========THEME STYLE-FONT :Ren - Din  ============
21:28:25 - /usr/bin/sox  /var/app/video_pre_processor/assets/music/silence_3.wav /var/www/html/clients/107808/audio/0374E00D-F7E6-7F63-303A-BCF07192F02B.wav /var/www/html/clients/107808/audio/0374E00D-F7E6-7F63-303A-BCF07192F02B_info_audio.wav
21:28:25 - /var/app/video_pre_processor/assets/vidbot/_files/audio/Jazz_30.mp3 PlayTime:751.67
21:28:25 - Return from CheckProfileVal function::0 - BG_MUSIC_OVER_ALL_CLIPS - YES
21:28:25 - Return from CheckProfileVal function::0 - BG_MUSIC_OVER_ALL_CLIPS - YES
21:28:25 - AUDIO TIMER: 
{"INTRO":0,"YEAR":1.57,"MODEL":3.35,"HIGH":4.37,"PRICE":8.26,"MILE":11.21,"ALL_OPTIONS":{"* General Options Intro":14.370000000000001,"Back-Up Camera":16.720000000000002,"Power Liftgate":18.000000000000004,"Keyless Entry":19.200000000000003,"Power Passenger Seat":20.430000000000003,"Steering wheel audio controls":21.760000000000005,"Remote Engine Start":23.930000000000007,"LED Headlights":25.370000000000008,"Traction Control":26.930000000000007,"Stability Control":28.240000000000006,"Navigation System":29.490000000000006},"OPTIONS":16.37,"OPTIONS_AUD_LENGTH":16.71,"ENDFILE":31.080000000000005}
21:28:25 - ===================ClipsGen END  ======================== 

21:28:25 - INFO:: VIDEO JSON : "0374E00D-F7E6-7F63-303A-BCF07192F02B.json"
21:28:25 - node /var/app/Vidbot-V2/dist/vidbot.js --input /var/www/html/clients/107808/video/0374E00D-F7E6-7F63-303A-BCF07192F02B.json --log debug > /var/www/html/clients/107808/video/0374E00D-F7E6-7F63-303A-BCF07192F02B.log
21:34:19 - Generated Video File./var/www/html/clients/107808/video/0374E00D-F7E6-7F63-303A-BCF07192F02B.mp4
21:34:19 - INFO:: Generated Video File./var/www/html/clients/107808/video/0374E00D-F7E6-7F63-303A-BCF07192F02B.mp4
21:34:19 - INFO:: Sprite & Bookmark Option(s) not enabled
21:34:19 - ================VIDEO JSON GEN END RETURN VALUE : 1 ============== 
21:34:19 - ================CREATE VIDEO END =========== 
 ERROR : { 0}
21:34:19 - Start Time:0
21:34:19 - 0##1.57##Come test drive
21:34:19 - 1.57##3.35##The 2022
21:34:19 - 3.35##4.37##Expedition
21:34:19 - 4.37##8.26##Powerful. Controlled. Resourceful. Expedition!
21:34:19 - 8.26##11.21##and it is priced below $60000
21:34:19 - 11.21##14.37##This Vehicle has less than 30000 miles
21:34:19 - Replacing VTT String * General Options Intro to Here are some of this Vehicle's great options
21:34:19 - 14.37##16.72##Here are some of this Vehicle's great options
21:34:19 - 16.72##18##Back-Up Camera
21:34:19 - 18##19.2##Power Liftgate
21:34:19 - 19.2##20.43##Keyless Entry
21:34:19 - 20.43##21.76##Power Passenger Seat
21:34:19 - 21.76##23.93##Steering wheel audio controls
21:34:19 - 23.93##25.37##Remote Engine Start
21:34:19 - 25.37##26.93##LED Headlights
21:34:19 - 26.93##28.24##Traction Control
21:34:19 - 28.24##29.49##Stability Control
21:34:19 - 29.49##31.08##Navigation System
21:34:19 - 31.08##35.73##This beauty will even make your house keys jealous.  Drive it today!
21:34:19 - Curl Response - {"error":"Video key not found [0374E00D-F7E6-7F63-303A-BCF07192F02B]"}
21:34:19 - Contents - /postVTTString/ -  - 
0##1.57##Come test drive|||1.57##3.35##The 2022|||3.35##4.37##Expedition|||4.37##8.26##Powerful. Controlled. Resourceful. Expedition!|||8.26##11.21##and it is priced below $60000|||11.21##14.37##This Vehicle has less than 30000 miles|||14.37##16.72##Here are some of this Vehicle's great options|||16.72##18##Back-Up Camera|||18##19.2##Power Liftgate|||19.2##20.43##Keyless Entry|||20.43##21.76##Power Passenger Seat|||21.76##23.93##Steering wheel audio controls|||23.93##25.37##Remote Engine Start|||25.37##26.93##LED Headlights|||26.93##28.24##Traction Control|||28.24##29.49##Stability Control|||29.49##31.08##Navigation System|||31.08##35.73##This beauty will even make your house keys jealous.  Drive it today!
21:34:19 - VIDEO JSON GEN RETURN VALUE: - 0
21:34:19 - update message_remote_queue set error=0, video = 1, error_message = concat( "", error_message ), process_start = '2024-06-24 21:28:21', audio_process_start = '2024-06-24 21:28:21', audio_process_end = '2024-06-24 21:28:25', video_process_start ='2024-06-24 21:28:25', video_process_end='2024-06-24 21:34:19' where queue_id = 306733
21:34:19 - ==38 - 1 Elapsed Time 358.16 ==

21:34:19 - update queue_status set stat_last_update=NOW(), type_cnt = 38, type_loop_cnt = 366 where type_val = 'V14'
21:34:19 - Curl Response - {"code":200,"status":"Success:PostServerProcessDetails Posted For IP [209.59.156.167] and Process [V14]"}
21:34:19 - Contents - /postServerProcessDetails/ - Success:PostServerProcessDetails Posted For IP [209.59.156.167] and Process [V14] - 200
21:34:19 - update queue_status set stat_last_update=NOW(), type_cnt = 38, type_loop_cnt = 366 where type_val = 'V14'
21:34:19 - Curl Response - {"code":200,"status":"Success:PostServerProcessDetails Posted For IP [209.59.156.167] and Process [V14]"}
21:34:19 - Contents - /postServerProcessDetails/ - Success:PostServerProcessDetails Posted For IP [209.59.156.167] and Process [V14] - 200
21:34:19 - ========== 38  - 238 mins 376.38605263158 Video Process / Start:2024-06-24 16:12:02 / Mod:13/16======
21:34:20 - Fetching  Video Jobs Mod Val : 13 Mod Limit : 16 Queue ID : 0 

21:34:20 - ========select * from message_remote_queue, hvo_data where queue_id%16 = 13 and image = 1 and video = 0 and error = 0 and hvo_queue_id = queue_id   order by high_priority_row desc, queue_id asc limit 1==================count =1
21:34:20 - Processing Auto VideoFKEY:F853C65A-B5D1-738E-77FC-DBD81787F33A - QueueID:306749 
21:34:20 - CLIENT INFO  CLIENT_FK  : 6C9F2577-52CB-A78F-38AF-7AB1C49C7FE8 ,CLIENT_INFO :{"client_id":"108595","client_fk":"6C9F2577-52CB-A78F-38AF-7AB1C49C7FE8","client_rftp_id":"2247660","client_ilot_id":"3302567","client_cc_id":"87677","client_name":"Valley Honda","client_active":"1","client_regen":"0","client_desc":"","client_createdate":"2023-08-25 20:31:09","client_enddate":"","client_update":"2023-08-25 20:31:09","client_demo":"0","client_email_forward":"","client_salesperson_name":"","client_address":"4173 Ogden Ave","client_city":"Aurora","client_state":"IL","client_zip":"60504","client_phone":"6308515700","client_url":"www.valleyhonda.com/","client_yt_uname":"","client_yt_pwd":"","client_md5":"c44e5f5f9431005761d4e1d1c07dbe6f","client_yt_verified":"0","client_yt_error":"0","client_video_size":"HDLARGE","client_tts_vm":"2","client_video_style":"RANDOM","client_mobile":"1","client_lat_lng":"","client_acc_id":"100000","SHOW_CARSTORY":"0"}
21:34:20 - Rest Call: /client/videoDetails/6C9F2577-52CB-A78F-38AF-7AB1C49C7FE8?video_key=F853C65A-B5D1-738E-77FC-DBD81787F33A
21:34:21 - Curl Response - {"vehicle_id":"24138394","vehicle_client_id":"108595","vehicle_fkey":"F853C65A-B5D1-738E-77FC-DBD81787F33A","vehicle_uid":"1286977092","vehicle_vin":"1HGCV1F49LA140269","vehicle_stock":"83247A","vehicle_year":"2020","vehicle_make":"Honda","vehicle_model":"Accord","vehicle_trim":"EX","vehicle_price":"22995","vehicle_mileage":"30331","vehicle_int_color":"","vehicle_ext_color":"Black","vehicle_body_type":"EX 1.5T CVT","vehicle_listing_type":"Used","vehicle_citympg":"30","vehicle_hwympg":"38","vehicle_combmpg":"","vehicle_cylinders":"4","vehicle_engine_size":"1.5 L","vehicle_trans":"Variable","vehicle_drivetrain":"FWD","vehicle_passengers":"0","vehicle_doors":"4","vehicle_certified":"0","vehicle_special":"0","vehicle_options":"Turbocharged,Front Wheel Drive,Power Steering,ABS,4-Wheel Disc Brakes,Brake Assist,Aluminum Wheels,Tires - Front Performance,Tires - Rear Performance,Temporary Spare Tire,Sun\/Moonroof,Generic Sun\/Moonroof,Heated Mirrors,Power Mirror(s),Rear Defrost,Intermittent Wipers,Variable Speed Intermittent Wipers,Daytime Running Lights,Automatic Headlights,LED Headlights,Automatic Highbeams,Fog Lamps,AM\/FM Stereo,Satellite Radio,MP3 Player,Bluetooth Connection,Telematics,Auxiliary Audio Input,HD Radio,Smart Device Integration,Requires Subscription,Steering Wheel Audio Controls,Power Driver Seat,Bucket Seats,Heated Front Seat(s),Driver Adjustable Lumbar,Pass-Through Rear Seat,Rear Bench Seat,Adjustable Steering Wheel,Trip Computer,Power Windows,Keyless Entry,Power Door Locks,Keyless Entry,Power Door Locks,Keyless Start,Cruise Control,Adaptive Cruise Control,Climate Control,Multi-Zone A\/C,A\/C,Woodgrain Interior Trim,Cloth Seats,Driver Vanity Mirror,Passenger Vanity Mirror,Driver Illuminated Vanity Mirror,Passenger Illuminated Visor Mirror,Floor Mats,Remote Engine Start,Keyless Start,Power Windows,Power Door Locks,Trip Computer,Security System,Immobilizer,Traction Control,Stability Control,Traction Control,Front Side Air Bag,Lane Departure Warning,Lane Keeping Assist,Lane Departure Warning,Front Collision Mitigation,Driver Monitoring,Blind Spot Monitor,Cross-Traffic Alert,Tire Pressure Monitor,Driver Air Bag,Passenger Air Bag,Front Head Air Bag,Rear Head Air Bag,Passenger Air Bag Sensor,Knee Air Bag,Child Safety Locks,Back-Up Camera","vehicle_desc":"*The Valley Honda Difference!, *Many Miles of Worry Free Driving Ahead, *Local trade, Cloth, 4-Wheel Disc Brakes, 8 Speakers, ABS brakes, Adaptive Cruise Control: Adaptive Cruise Control (ACC) with Low-Speed Follow, Air Conditioning, Alloy wheels, AM\/FM radio: SiriusXM, Apple CarPlay\/Android Auto, Auto High-beam Headlights, Automatic temperature control, Blind Spot Information (BSI) System warning, Brake assist, Bumpers: body-color, Cloth Seat Trim, Delay-off headlights, Driver door bin, Driver vanity mirror, Dual front impact airbags, Dual front side impact airbags, Electronic Stability Control, Emergency communication system: HondaLink, Exterior Parking Camera Rear, Forward collision: Collision Mitigation Braking System (CMBS) + FCW mitigation, Four wheel independent suspension, Front anti-roll bar, Front Bucket Seats, Front Center Armrest, Front dual zone A\/C, Front fog lights, Front reading lights, Fully automatic headlights, Heated door mirrors, Heated Front Bucket Seats, Heated front seats, Illuminated entry, Knee airbag, Low tire pressure warning, Occupant sensing airbag, Outside temperature display, Overhead airbag, Overhead console, Panic alarm, Passenger door bin, Passenger vanity mirror, Power door mirrors, Power driver seat, Power moonroof, Power steering, Power windows, Radio data system, Radio: 180-Watt AM\/FM\/HD\/SiriusXM Audio System, Rear anti-roll bar, Rear seat center armrest, Rear window defroster, Remote keyless entry, Security system, Speed control, Speed-sensing steering, Speed-Sensitive Wipers, Split folding rear seat, Steering wheel mounted audio controls, Tachometer, Telescoping steering wheel, Tilt steering wheel, Traction control, Trip computer, Variably intermittent wipers.Priced below KBB Fair Purchase Price! Odometer is 17339 miles below market average! CARFAX One-Owner.2020 Black Honda Accord 4D Sedan EX 1.5T I4 DOHC 16V Turbocharged VTEC 30\/38 City\/Highway MPG CVT FWDAwards:* ALG Residual Value Awards, Residual Value Awards","vehicle_img_url":"https:\/\/content.homenetiol.com\/2000150\/2065303\/640x480\/9f255a81c54b4c359a7035005564fba4.jpg,https:\/\/content.homenetiol.com\/2000150\/2065303\/640x480\/8eb441008d0940e5bb0d1528a39eeaf2.jpg,https:\/\/content.homenetiol.com\/2000150\/2065303\/640x480\/83e618b2786341af8d58e6971d301403.jpg,https:\/\/content.homenetiol.com\/2000150\/2065303\/640x480\/eb2e0b4a574b40cab965861c2cab60f2.jpg,https:\/\/content.homenetiol.com\/2000150\/2065303\/640x480\/93eb04e7cdf044a7b1e9da6683d8c5cd.jpg,https:\/\/content.homenetiol.com\/2000150\/2065303\/640x480\/9f1f260813a242f790c805b230148cff.jpg,https:\/\/content.homenetiol.com\/2000150\/2065303\/640x480\/6fe57537e09245099736298938cb973d.jpg,https:\/\/content.homenetiol.com\/2000150\/2065303\/640x480\/84c932827c564f2aa5ce705c56040926.jpg,https:\/\/content.homenetiol.com\/2000150\/2065303\/640x480\/169a3a68d90b4583b2d2e81b13d7354c.jpg,https:\/\/content.homenetiol.com\/2000150\/2065303\/640x480\/6be4c2789138490a853936b49d4ef8b9.jpg,https:\/\/content.homenetiol.com\/2000150\/2065303\/640x480\/33b57b78565f4fd6bec86cf21fb2529e.jpg,https:\/\/content.homenetiol.com\/2000150\/2065303\/640x480\/818ca7fc01944073a5f3253fc63b2ecd.jpg,https:\/\/content.homenetiol.com\/2000150\/2065303\/640x480\/0ef6c24229644bebaf107952522afc1f.jpg,https:\/\/content.homenetiol.com\/2000150\/2065303\/640x480\/b4deb3674e3e43d78d6433df97cfeca5.jpg,https:\/\/content.homenetiol.com\/2000150\/2065303\/640x480\/05e1b018f9fd4b919bcb1262cef2d404.jpg,https:\/\/content.homenetiol.com\/2000150\/2065303\/640x480\/c84ef9c7e64341fb919c6dc549f5309f.jpg,https:\/\/content.homenetiol.com\/2000150\/2065303\/640x480\/2d6962548fce419091629dd23b67c9b3.jpg,https:\/\/content.homenetiol.com\/2000150\/2065303\/640x480\/051f38856a9240d087dd3d54cd4021bc.jpg,https:\/\/content.homenetiol.com\/2000150\/2065303\/640x480\/8fc26c65c27944fdbd6887606385f941.jpg,https:\/\/content.homenetiol.com\/2000150\/2065303\/640x480\/cb21e87ff004460f86f3a04c6681477a.jpg","vehicle_overlay_time":"","vehicle_tts_text":"","vehicle_img_cnt":"","veh_more_info":"","vehicle_create_date":"2024-06-24 20:43:11","vehicle_updated_date":"","vehicle_last_update":"2024-06-24 20:43:11","vehicle_md5":"10735430ad16d2a9d8ba88eeda75de0f","vehicle_status":"N","vehicle_view_cnt":"0","vehicle_url":"","vehicle_murl":"","vehicle_https_url":"","vehicle_delete_flag":"0","vehicle_delete_time":"","yt_url":"","yt_key":"","yt_created_on":"","cf_url":"","cf_xml":""}
21:34:21 - Rest Call: /client/getAudioVideoConfig/6C9F2577-52CB-A78F-38AF-7AB1C49C7FE8?listing_type=Used&video_type=Auto&certified=0&vehicle_make=Honda
21:34:21 - Curl Response - {"BG_MUSIC":"Rock","THEME_BG_COLOR":"ffffff","THEME_ACCENTS_COLOR":"532380","THEME_FONT_COLOR":"444444","THEME_FONT":"Din","THEME_STYLE":"Ren","BG_VOL_LEVEL":"0.25","AUDIO_VO":"","VIDEO_SIZE":"VIDEO_LARGE","CUSTOM_INTRO":"","CUSTOM_OUTRO":"","THEME_KEY":"100000_0_Auto_Default_0_ALL","THEME_RANK":"2","THEME_CONFIG":"RESELLER_CONFIG","OLD_BG_STYLE":"0"}
21:34:21 - Return from CheckProfileVal function::0 - DISABLE_PRICE - YES
21:34:21 - Return from CheckProfileVal function::0 - DISABLE_MILEAGE - YES
21:34:21 - Return from CheckProfileVal function::0 - DISABLE_CARSTORY - YES
21:34:21 - Config Information for F853C65A-B5D1-738E-77FC-DBD81787F33A - Width:640 - CPO:0/0 - CF: - CS:0  - Intro: - Outro: - Ovleray: -THEME:100000_0_Auto_Default_0_ALL
21:34:21 - https://content.homenetiol.com/2000150/2065303/640x480/9f255a81c54b4c359a7035005564fba4.jpg /var/www/html/clients/108595/images/F853C65A-B5D1-738E-77FC-DBD81787F33A_1.jpg
21:34:21 - https://content.homenetiol.com/2000150/2065303/640x480/8eb441008d0940e5bb0d1528a39eeaf2.jpg /var/www/html/clients/108595/images/F853C65A-B5D1-738E-77FC-DBD81787F33A_2.jpg
21:34:21 - https://content.homenetiol.com/2000150/2065303/640x480/83e618b2786341af8d58e6971d301403.jpg /var/www/html/clients/108595/images/F853C65A-B5D1-738E-77FC-DBD81787F33A_3.jpg
21:34:21 - https://content.homenetiol.com/2000150/2065303/640x480/eb2e0b4a574b40cab965861c2cab60f2.jpg /var/www/html/clients/108595/images/F853C65A-B5D1-738E-77FC-DBD81787F33A_4.jpg
21:34:21 - https://content.homenetiol.com/2000150/2065303/640x480/93eb04e7cdf044a7b1e9da6683d8c5cd.jpg /var/www/html/clients/108595/images/F853C65A-B5D1-738E-77FC-DBD81787F33A_5.jpg
21:34:21 - https://content.homenetiol.com/2000150/2065303/640x480/9f1f260813a242f790c805b230148cff.jpg /var/www/html/clients/108595/images/F853C65A-B5D1-738E-77FC-DBD81787F33A_6.jpg
21:34:21 - https://content.homenetiol.com/2000150/2065303/640x480/6fe57537e09245099736298938cb973d.jpg /var/www/html/clients/108595/images/F853C65A-B5D1-738E-77FC-DBD81787F33A_7.jpg
21:34:21 - https://content.homenetiol.com/2000150/2065303/640x480/84c932827c564f2aa5ce705c56040926.jpg /var/www/html/clients/108595/images/F853C65A-B5D1-738E-77FC-DBD81787F33A_8.jpg
21:34:21 - https://content.homenetiol.com/2000150/2065303/640x480/169a3a68d90b4583b2d2e81b13d7354c.jpg /var/www/html/clients/108595/images/F853C65A-B5D1-738E-77FC-DBD81787F33A_9.jpg
21:34:21 - https://content.homenetiol.com/2000150/2065303/640x480/6be4c2789138490a853936b49d4ef8b9.jpg /var/www/html/clients/108595/images/F853C65A-B5D1-738E-77FC-DBD81787F33A_10.jpg
21:34:21 - https://content.homenetiol.com/2000150/2065303/640x480/33b57b78565f4fd6bec86cf21fb2529e.jpg /var/www/html/clients/108595/images/F853C65A-B5D1-738E-77FC-DBD81787F33A_11.jpg
21:34:21 - https://content.homenetiol.com/2000150/2065303/640x480/818ca7fc01944073a5f3253fc63b2ecd.jpg /var/www/html/clients/108595/images/F853C65A-B5D1-738E-77FC-DBD81787F33A_12.jpg
21:34:21 - https://content.homenetiol.com/2000150/2065303/640x480/0ef6c24229644bebaf107952522afc1f.jpg /var/www/html/clients/108595/images/F853C65A-B5D1-738E-77FC-DBD81787F33A_13.jpg
21:34:21 - https://content.homenetiol.com/2000150/2065303/640x480/b4deb3674e3e43d78d6433df97cfeca5.jpg /var/www/html/clients/108595/images/F853C65A-B5D1-738E-77FC-DBD81787F33A_14.jpg
21:34:21 - https://content.homenetiol.com/2000150/2065303/640x480/05e1b018f9fd4b919bcb1262cef2d404.jpg /var/www/html/clients/108595/images/F853C65A-B5D1-738E-77FC-DBD81787F33A_15.jpg
21:34:21 - https://content.homenetiol.com/2000150/2065303/640x480/c84ef9c7e64341fb919c6dc549f5309f.jpg /var/www/html/clients/108595/images/F853C65A-B5D1-738E-77FC-DBD81787F33A_16.jpg
21:34:21 - https://content.homenetiol.com/2000150/2065303/640x480/2d6962548fce419091629dd23b67c9b3.jpg /var/www/html/clients/108595/images/F853C65A-B5D1-738E-77FC-DBD81787F33A_17.jpg
21:34:21 - https://content.homenetiol.com/2000150/2065303/640x480/051f38856a9240d087dd3d54cd4021bc.jpg /var/www/html/clients/108595/images/F853C65A-B5D1-738E-77FC-DBD81787F33A_18.jpg
21:34:21 - https://content.homenetiol.com/2000150/2065303/640x480/8fc26c65c27944fdbd6887606385f941.jpg /var/www/html/clients/108595/images/F853C65A-B5D1-738E-77FC-DBD81787F33A_19.jpg
21:34:21 - https://content.homenetiol.com/2000150/2065303/640x480/cb21e87ff004460f86f3a04c6681477a.jpg /var/www/html/clients/108595/images/F853C65A-B5D1-738E-77FC-DBD81787F33A_20.jpg
21:34:21 - Image Count 20
21:34:21 - Setting Female English VO Constants | 0 | 0
21:34:21 - ====HVO Value:1, Audio Value:0===
21:34:21 - Return from CheckProfileVal function::0 - AUDIO_INTRO - 
21:34:21 - Return from CheckProfileVal function::0 - AUDIO_OUTRO - 
21:34:21 - ================Process HVO=========== 
 1
21:34:21 - ================CLIENT SELECT TTS VM VALUE=========== 
 2
21:34:21 - 2 - 2 - /var/app/video_pre_processor/assets/hvo/
21:34:21 - Setting Female English VO Constants | 0 | 2
21:34:21 - HVO Soap Call Method - AudoListWMIE 

21:34:21 - Getting Text For Audio Files
21:34:21 - HVO Soap Call Method - AudoListTWMIE 

21:34:21 - Getting Text For Audio Files emotionalFile 9
21:34:21 - HVO Soap Call Method - GetTTScripts 

21:34:21 - Getting Text For Audio Files introEmotionalFile 21
21:34:21 - HVO Soap Call Method - GetTTScripts 

21:34:21 - Getting Text For Audio Files scriptFile 23
21:34:21 - HVO Soap Call Method - GetTTScripts 

21:34:21 - ================TTS VM VALUE=========== 
 2
21:34:21 - ================GetVOFiles=========== 
 {"OptionFiles":[{"option_str":"* General Options Intro","option_file":"http:\/\/hvo.flickfusion.net\/audio\/options\/options_fe_audio_file_55.mp3","option_saftey":1},{"option_str":"Back-Up Camera","option_file":"http:\/\/hvo.flickfusion.net\/audio\/options\/options_fe_audio_file_337.mp3","option_saftey":1},{"option_str":"Keyless Entry","option_file":"http:\/\/hvo.flickfusion.net\/audio\/options\/options_fe_audio_file_202.mp3","option_saftey":1},{"option_str":"Steering wheel audio controls","option_file":"http:\/\/hvo.flickfusion.net\/audio\/options\/options_fe_audio_file_296.mp3","option_saftey":1},{"option_str":"Remote Engine Start","option_file":"http:\/\/hvo.flickfusion.net\/audio\/options\/options_fe_audio_file_272.mp3","option_saftey":1},{"option_str":"LED Headlights","option_file":"http:\/\/hvo.flickfusion.net\/audio\/options\/options_fe_audio_file_1349.mp3","option_saftey":1},{"option_str":"Traction Control","option_file":"http:\/\/hvo.flickfusion.net\/audio\/options\/options_fe_audio_file_18.mp3","option_saftey":2},{"option_str":"Stability Control","option_file":"http:\/\/hvo.flickfusion.net\/audio\/options\/options_fe_audio_file_17.mp3","option_saftey":2},{"option_str":"Traction Control","option_file":"http:\/\/hvo.flickfusion.net\/audio\/options\/options_fe_audio_file_18.mp3","option_saftey":2},{"option_str":"Lane Departure Warning","option_file":"http:\/\/hvo.flickfusion.net\/audio\/options\/options_fe_audio_file_1348.mp3","option_saftey":1},{"option_str":"Keyless Entry","option_file":"http:\/\/hvo.flickfusion.net\/audio\/options\/options_fe_audio_file_202.mp3","option_saftey":1},{"option_str":"Lane Departure Warning","option_file":"http:\/\/hvo.flickfusion.net\/audio\/options\/options_fe_audio_file_1348.mp3","option_saftey":1},{"option_str":"ANTI-LOCK BRAKING SYSTEM","option_file":"http:\/\/hvo.flickfusion.net\/audio\/options\/options_fe_audio_file_70.mp3","option_saftey":1},{"option_str":"Bluetooth","option_file":"http:\/\/hvo.flickfusion.net\/audio\/options\/options_fe_audio_file_846.mp3","option_saftey":1},{"option_str":"Driver Air Bag","option_file":"http:\/\/hvo.flickfusion.net\/audio\/options\/options_fe_audio_file_148.mp3","option_saftey":1},{"option_str":"Power Steering","option_file":"http:\/\/hvo.flickfusion.net\/audio\/options\/options_fe_audio_file_244.mp3","option_saftey":1},{"option_str":"Adjustable Steering Wheel","option_file":"http:\/\/hvo.flickfusion.net\/audio\/options\/options_fe_audio_file_74.mp3","option_saftey":1},{"option_str":"4-Wheel Disc Brakes","option_file":"http:\/\/hvo.flickfusion.net\/audio\/options\/options_fe_audio_file_63.mp3","option_saftey":1},{"option_str":"Keyless Start","option_file":"http:\/\/hvo.flickfusion.net\/audio\/options\/options_fe_audio_file_203.mp3","option_saftey":1},{"option_str":"Keyless Start","option_file":"http:\/\/hvo.flickfusion.net\/audio\/options\/options_fe_audio_file_203.mp3","option_saftey":1},{"option_str":"FLOOR MATS","option_file":"http:\/\/hvo.flickfusion.net\/audio\/options\/options_fe_audio_file_578.mp3","option_saftey":1},{"option_str":"Lane Keeping Assist","option_file":"","option_saftey":1},{"option_str":"Cruise Control","option_file":"http:\/\/hvo.flickfusion.net\/audio\/options\/options_fe_audio_file_134.mp3","option_saftey":1},{"option_str":"Aluminum Wheels","option_file":"http:\/\/hvo.flickfusion.net\/audio\/options\/options_fe_audio_file_83.mp3","option_saftey":1},{"option_str":"Rear Defrost","option_file":"http:\/\/hvo.flickfusion.net\/audio\/options\/options_fe_audio_file_259.mp3","option_saftey":1},{"option_str":"AM\/FM STEREO RADIO","option_file":"http:\/\/hvo.flickfusion.net\/audio\/options\/options_fe_audio_file_69.mp3","option_saftey":1},{"option_str":"Climate Control","option_file":"http:\/\/hvo.flickfusion.net\/audio\/options\/options_fe_audio_file_126.mp3","option_saftey":1},{"option_str":"FRONT WHEEL DRIVE","option_file":"http:\/\/hvo.flickfusion.net\/audio\/options\/options_fe_audio_file_170.mp3","option_saftey":1},{"option_str":"MP3 Player","option_file":"http:\/\/hvo.flickfusion.net\/audio\/options\/options_fe_audio_file_211.mp3","option_saftey":1},{"option_str":"Trip Computer","option_file":"http:\/\/hvo.flickfusion.net\/audio\/options\/options_fe_audio_file_321.mp3","option_saftey":1},{"option_str":"Bucket Seats","option_file":"http:\/\/hvo.flickfusion.net\/audio\/options\/options_fe_audio_file_107.mp3","option_saftey":1},{"option_str":"Power Windows","option_file":"http:\/\/hvo.flickfusion.net\/audio\/options\/options_fe_audio_file_2.mp3","option_saftey":1},{"option_str":"Fog Lamps","option_file":"http:\/\/hvo.flickfusion.net\/audio\/options\/options_fe_audio_file_171.mp3","option_saftey":1},{"option_str":"Power Door Locks","option_file":"http:\/\/hvo.flickfusion.net\/audio\/options\/options_fe_audio_file_234.mp3","option_saftey":1},{"option_str":"Power Windows","option_file":"http:\/\/hvo.flickfusion.net\/audio\/options\/options_fe_audio_file_2.mp3","option_saftey":1},{"option_str":"Child Safety Locks","option_file":"http:\/\/hvo.flickfusion.net\/audio\/options\/options_fe_audio_file_122.mp3","option_saftey":1},{"option_str":"Power Door Locks","option_file":"http:\/\/hvo.flickfusion.net\/audio\/options\/options_fe_audio_file_234.mp3","option_saftey":1},{"option_str":"Power Door Locks","option_file":"http:\/\/hvo.flickfusion.net\/audio\/options\/options_fe_audio_file_234.mp3","option_saftey":1},{"option_str":"Passenger Air Bag","option_file":"http:\/\/hvo.flickfusion.net\/audio\/options\/options_fe_audio_file_228.mp3","option_saftey":1},{"option_str":"SECURITY SYSTEM","option_file":"http:\/\/hvo.flickfusion.net\/audio\/options\/options_fe_audio_file_996.mp3","option_saftey":1},{"option_str":"Trip Computer","option_file":"http:\/\/hvo.flickfusion.net\/audio\/options\/options_fe_audio_file_321.mp3","option_saftey":1},{"option_str":"Satellite Radio","option_file":"http:\/\/hvo.flickfusion.net\/audio\/options\/options_fe_audio_file_279.mp3","option_saftey":1},{"option_str":"Auxiliary Audio Input","option_file":"http:\/\/hvo.flickfusion.net\/audio\/options\/options_fe_audio_file_95.mp3","option_saftey":1},{"option_str":"HD Radio","option_file":"http:\/\/hvo.flickfusion.net\/audio\/options\/options_fe_audio_file_452.mp3","option_saftey":1},{"option_str":"Daytime Running Lights","option_file":"http:\/\/hvo.flickfusion.net\/audio\/options\/options_fe_audio_file_142.mp3","option_saftey":1},{"option_str":"Brake Assist","option_file":"http:\/\/hvo.flickfusion.net\/audio\/options\/options_fe_audio_file_104.mp3","option_saftey":1},{"option_str":"Rear Head Air Bag","option_file":"http:\/\/hvo.flickfusion.net\/audio\/options\/options_fe_audio_file_261.mp3","option_saftey":1},{"option_str":"A\/C","option_file":"http:\/\/hvo.flickfusion.net\/audio\/options\/options_fe_audio_file_67.mp3","option_saftey":1},{"option_str":"Power Driver Seat","option_file":"http:\/\/hvo.flickfusion.net\/audio\/options\/options_fe_audio_file_237.mp3","option_saftey":1},{"option_str":"Driver Vanity Mirror","option_file":"http:\/\/hvo.flickfusion.net\/audio\/options\/options_fe_audio_file_152.mp3","option_saftey":1},{"option_str":"Driver Illuminated Vanity Mirror","option_file":"http:\/\/hvo.flickfusion.net\/audio\/options\/options_fe_audio_file_149.mp3","option_saftey":1},{"option_str":"Passenger Illuminated Visor Mirror","option_file":"http:\/\/hvo.flickfusion.net\/audio\/options\/options_fe_audio_file_230.mp3","option_saftey":1},{"option_str":"Cloth Seats","option_file":"http:\/\/hvo.flickfusion.net\/audio\/options\/options_fe_audio_file_130.mp3","option_saftey":1},{"option_str":"Passenger Vanity Mirror","option_file":"http:\/\/hvo.flickfusion.net\/audio\/options\/options_fe_audio_file_233.mp3","option_saftey":1},{"option_str":"Heated Mirrors","option_file":"http:\/\/hvo.flickfusion.net\/audio\/options\/options_fe_audio_file_7.mp3","option_saftey":1},{"option_str":"Turbocharged","option_file":"http:\/\/hvo.flickfusion.net\/audio\/options\/options_fe_audio_file_322.mp3","option_saftey":1},{"option_str":"Telematics","option_file":"http:\/\/hvo.flickfusion.net\/audio\/options\/options_fe_audio_file_303.mp3","option_saftey":1},{"option_str":"Pass-Through Rear Seat","option_file":"http:\/\/hvo.flickfusion.net\/audio\/options\/options_fe_audio_file_227.mp3","option_saftey":1},{"option_str":"Woodgrain Interior Trim","option_file":"http:\/\/hvo.flickfusion.net\/audio\/options\/options_fe_audio_file_335.mp3","option_saftey":1},{"option_str":"Tires - Rear Performance","option_file":"http:\/\/hvo.flickfusion.net\/audio\/options\/options_fe_audio_file_316.mp3","option_saftey":1},{"option_str":"Tires - Front Performance","option_file":"http:\/\/hvo.flickfusion.net\/audio\/options\/options_fe_audio_file_311.mp3","option_saftey":1},{"option_str":"Tire Pressure Monitor","option_file":"http:\/\/hvo.flickfusion.net\/audio\/options\/options_fe_audio_file_36.mp3","option_saftey":2},{"option_str":"ADAPTIVE CRUISE CONTROL  ","option_file":"http:\/\/hvo.flickfusion.net\/audio\/options\/options_fe_audio_file_874.mp3","option_saftey":1},{"option_str":"Smart Device Integration","option_file":"http:\/\/hvo.flickfusion.net\/audio\/options\/options_fe_audio_file_1480.mp3","option_saftey":1},{"option_str":"Sun\/Moonroof","option_file":"http:\/\/hvo.flickfusion.net\/audio\/options\/options_fe_audio_file_1484.mp3","option_saftey":1},{"option_str":"Blind Spot Monitor","option_file":"http:\/\/hvo.flickfusion.net\/audio\/options\/options_fe_audio_file_1428.mp3","option_saftey":1},{"option_str":"REAR BENCH SEAT","option_file":"http:\/\/hvo.flickfusion.net\/audio\/options\/options_fe_audio_file_693.mp3","option_saftey":1},{"option_str":"Variable Speed Intermittent Wipers","option_file":"http:\/\/hvo.flickfusion.net\/audio\/options\/options_fe_audio_file_325.mp3","option_saftey":1}],"yearFile":"http:\/\/hvo.flickfusion.net\/audio\/year\/year_fe_audio_file_37.mp3","makeFile":"http:\/\/hvo.flickfusion.net\/audio\/makes\/make_name_fe_audio_file_16.mp3","modelFile":"http:\/\/hvo.flickfusion.net\/audio\/mdlnames\/model_name_fe_audio_file_135.mp3","modelHighlightFile":"http:\/\/hvo.flickfusion.net\/audio\/models\/model_fe_audio_file_135.mp3","styleFile":"","bodytypeFile":"","transFile":"http:\/\/hvo.flickfusion.net\/audio\/domain_transmission\/transmission_fe_audio_file_4.mp3","engineFile":"http:\/\/hvo.flickfusion.net\/audio\/domain_enginesize\/enginesize_fe_audio_file_3.mp3","cylindersFile":"http:\/\/hvo.flickfusion.net\/audio\/domain_cylinders\/cylinder_fe_audio_file_4.mp3","driveTrainFile":"http:\/\/hvo.flickfusion.net\/audio\/domain_drivetrain\/drivetrain_fe_audio_file_1.mp3","priceFile":"http:\/\/hvo.flickfusion.net\/audio\/prices\/price_fe_audio_file_12.mp3","mileageFile":"http:\/\/hvo.flickfusion.net\/audio\/mileage\/miles_fe_audio_file_9.mp3","carfaxFile":"","emotionalFile":"http:\/\/hvo.flickfusion.net\/audio\/emotional\/emotional_fe_audio_file_9.mp3","introEmotionalFile":"http:\/\/hvo.flickfusion.net\/audio\/emotional\/ie_fe_audio_file_21.mp3","scriptFile":"http:\/\/hvo.flickfusion.net\/audio\/domain_scripts\/script_fe_audio_file_23.mp3","statusCode":"1","statusMessage":"Audio Files Sent"}
21:34:21 - /var/www/html/clients/108595/audio/F853C65A-B5D1-738E-77FC-DBD81787F33A.wav
21:34:21 - ================Process HVO SOAP CALL CMD=========== 
 /usr/bin/sox
 STATUS CODE 
 1
21:34:21 - /var/app/video_pre_processor/assets/hvo/ie_fe_audio_file_21.wav PlayTime:2.85
21:34:21 - /var/app/video_pre_processor/assets/hvo/year_fe_audio_file_37.wav PlayTime:1.51
21:34:21 - /var/app/video_pre_processor/assets/hvo/model_name_fe_audio_file_135.wav PlayTime:1.15
21:34:21 - /var/app/video_pre_processor/assets/hvo/model_fe_audio_file_135.wav PlayTime:7.81
21:34:21 - Skipping VTT for BODY - bodytypeFile
21:34:21 - /var/app/video_pre_processor/assets/hvo/price_fe_audio_file_12.wav PlayTime:2.95
21:34:21 - KM Check : 30331 | 0
21:34:21 - /var/app/video_pre_processor/assets/hvo/miles_fe_audio_file_9.wav PlayTime:3.42
21:34:21 - Curl Response - {"error":"Vehicle options not found for vehicle key[F853C65A-B5D1-738E-77FC-DBD81787F33A]"}
21:34:21 - ============={"error":"Vehicle options not found for vehicle key[F853C65A-B5D1-738E-77FC-DBD81787F33A]"}===============
21:34:21 - Skipping Duplicate Option Traction Control
21:34:21 - Skipping Duplicate Option Keyless Entry
21:34:21 - Skipping Duplicate Option Lane Departure Warning
21:34:21 - Skipping Duplicate Option Keyless Start
21:34:21 - Skipping Duplicate Option Power Windows
21:34:21 - Skipping Duplicate Option Power Door Locks
21:34:21 - Skipping Duplicate Option Power Door Locks
21:34:21 - Skipping Duplicate Option Trip Computer
21:34:21 - /var/app/video_pre_processor/assets/hvo/options_fe_audio_file_55.wav PlayTime:2.35
21:34:21 - /var/app/video_pre_processor/assets/hvo/options_fe_audio_file_337.wav PlayTime:1.28
21:34:21 - /var/app/video_pre_processor/assets/hvo/options_fe_audio_file_202.wav PlayTime:1.23
21:34:21 - /var/app/video_pre_processor/assets/hvo/options_fe_audio_file_296.wav PlayTime:2.17
21:34:21 - /var/app/video_pre_processor/assets/hvo/options_fe_audio_file_272.wav PlayTime:1.44
21:34:21 - /var/app/video_pre_processor/assets/hvo/options_fe_audio_file_1349.wav PlayTime:1.56
21:34:21 - /var/app/video_pre_processor/assets/hvo/options_fe_audio_file_18.wav PlayTime:1.31
21:34:21 - /var/app/video_pre_processor/assets/hvo/options_fe_audio_file_17.wav PlayTime:1.25
21:34:21 - /var/app/video_pre_processor/assets/hvo/options_fe_audio_file_1348.wav PlayTime:1.44
21:34:21 - /var/app/video_pre_processor/assets/hvo/options_fe_audio_file_70.wav PlayTime:1.7
21:34:21 - /var/app/video_pre_processor/assets/hvo/options_fe_audio_file_846.wav PlayTime:1.04
21:34:21 - ======= ALL Options  ========== 
null
21:34:21 - /var/www/html/clients/108595/audio/F853C65A-B5D1-738E-77FC-DBD81787F33A_option.wav
21:34:21 - /usr/bin/sox /var/app/video_pre_processor/assets/hvo/options_fe_audio_file_55.wav /var/app/video_pre_processor/assets/hvo/options_fe_audio_file_337.wav /var/app/video_pre_processor/assets/hvo/options_fe_audio_file_202.wav /var/app/video_pre_processor/assets/hvo/options_fe_audio_file_296.wav /var/app/video_pre_processor/assets/hvo/options_fe_audio_file_272.wav /var/app/video_pre_processor/assets/hvo/options_fe_audio_file_1349.wav /var/app/video_pre_processor/assets/hvo/options_fe_audio_file_18.wav /var/app/video_pre_processor/assets/hvo/options_fe_audio_file_17.wav /var/app/video_pre_processor/assets/hvo/options_fe_audio_file_1348.wav /var/app/video_pre_processor/assets/hvo/options_fe_audio_file_70.wav /var/app/video_pre_processor/assets/hvo/options_fe_audio_file_846.wav /var/www/html/clients/108595/audio/F853C65A-B5D1-738E-77FC-DBD81787F33A_option.wav
21:34:21 - /var/www/html/clients/108595/audio/F853C65A-B5D1-738E-77FC-DBD81787F33A_option.wav PlayTime:16.77
21:34:21 - Skipping VTT for CARFAX - carfaxFile
21:34:21 - /var/app/video_pre_processor/assets/hvo/emotional_fe_audio_file_9.wav PlayTime:3.06
21:34:21 - /usr/bin/sox /var/app/video_pre_processor/assets/hvo/ie_fe_audio_file_21.wav /var/app/video_pre_processor/assets/hvo/year_fe_audio_file_37.wav /var/app/video_pre_processor/assets/hvo/model_name_fe_audio_file_135.wav /var/app/video_pre_processor/assets/hvo/model_fe_audio_file_135.wav /var/app/video_pre_processor/assets/hvo/price_fe_audio_file_12.wav /var/app/video_pre_processor/assets/hvo/miles_fe_audio_file_9.wav /var/www/html/clients/108595/audio/F853C65A-B5D1-738E-77FC-DBD81787F33A_option.wav /var/app/video_pre_processor/assets/hvo/emotional_fe_audio_file_9.wav /var/www/html/clients/108595/audio/F853C65A-B5D1-738E-77FC-DBD81787F33A_temp1.wav
21:34:21 - Return from CheckProfileVal function::0 - REPLACE_FULL_AUDIO - 
21:34:21 - Return from CheckProfileVal function::0 - REPLACE_FULL_AUDIO_NEW - 
21:34:21 - ========REPALCE AUDIO TRACK LISTING TYPE used \ n USED VALUE : 0 NEW AUDIO VALUE : { 0} ==============

21:34:21 - Video Length for audio merge: 0
21:34:21 - /root/bin/ffmpeg  -i /var/www/html/clients/108595/audio/F853C65A-B5D1-738E-77FC-DBD81787F33A.wav -f mp3 -ar 44100 -ab 320 -ac 2 -y /var/www/html/clients/108595/audio/F853C65A-B5D1-738E-77FC-DBD81787F33A.mp3
ffmpeg version N-109053-g9b13078c6a Copyright (c) 2000-2022 the FFmpeg developers
  built with gcc 5.4.0 (GCC)
  configuration: --prefix=/root/ffmpeg_build --pkg-config-flags=--static --extra-cflags=-I/root/ffmpeg_build/include --extra-ldflags=-L/root/ffmpeg_build/lib --extra-libs=-lpthread --extra-libs=-lm --bindir=/root/bin --enable-gpl --enable-libfdk_aac --enable-libfreetype --enable-libmp3lame --enable-libopus --enable-libvpx --enable-libx264 --enable-openssl --enable-libx265 --enable-nonfree --enable-libvidstab
  libavutil      57. 42.100 / 57. 42.100
  libavcodec     59. 52.101 / 59. 52.101
  libavformat    59. 34.101 / 59. 34.101
  libavdevice    59.  8.101 / 59.  8.101
  libavfilter     8. 50.100 /  8. 50.100
  libswscale      6.  8.112 /  6.  8.112
  libswresample   4.  9.100 /  4.  9.100
  libpostproc    56.  7.100 / 56.  7.100
Guessed Channel Layout for Input Stream #0.0 : stereo
Input #0, wav, from '/var/www/html/clients/108595/audio/F853C65A-B5D1-738E-77FC-DBD81787F33A.wav':
  Duration: 00:00:39.52, bitrate: 1411 kb/s
  Stream #0:0: Audio: pcm_s16le ([1][0][0][0] / 0x0001), 44100 Hz, 2 channels, s16, 1411 kb/s
Stream mapping:
  Stream #0:0 -> #0:0 (pcm_s16le (native) -> mp3 (libmp3lame))
Press [q] to stop, [?] for help
[libmp3lame @ 0x420b480] Bitrate 320 is extremely low, maybe you mean 320k
The bitrate parameter is set too low. It takes bits/s as argument, not kbits/s
Output #0, mp3, to '/var/www/html/clients/108595/audio/F853C65A-B5D1-738E-77FC-DBD81787F33A.mp3':
  Metadata:
    TSSE            : Lavf59.34.101
  Stream #0:0: Audio: mp3, 44100 Hz, stereo, s16p, 0 kb/s
    Metadata:
      encoder         : Lavc59.52.101 libmp3lame
size=       0kB time=-577014:32:22.77 bitrate=  -0.0kbits/s speed=N/A    
size=     103kB time=00:00:06.55 bitrate= 128.3kbits/s speed=13.1x    
size=     205kB time=00:00:13.11 bitrate= 128.1kbits/s speed=13.1x    
size=     256kB time=00:00:18.78 bitrate= 111.7kbits/s speed=12.5x    
size=     256kB time=00:00:25.02 bitrate=  83.8kbits/s speed=12.5x    
size=     256kB time=00:00:31.16 bitrate=  67.3kbits/s speed=12.5x    
size=     512kB time=00:00:37.69 bitrate= 111.3kbits/s speed=12.5x    
size=     618kB time=00:00:39.49 bitrate= 128.2kbits/s speed=12.5x    
video:0kB audio:618kB subtitle:0kB other streams:0kB global headers:0kB muxing overhead: 0.039982%
21:34:25 - /var/app/video_pre_processor/assets/vidbot/_files/audio/Rock.mp3 PlayTime:479.71
21:34:25 - Using Rock.mp3 - /var/app/video_pre_processor/assets/vidbot/_files/audio/Rock.mp3
21:34:25 - BG MUSIC FILE /var/app/video_pre_processor/assets/vidbot/_files/audio/Rock.mp3 

21:34:25 - BG AUDIO CLIENT OVELAY VALUE : 0 

21:34:25 - /var/www/html/clients/108595/audio/F853C65A-B5D1-738E-77FC-DBD81787F33A.wav PlayTime:39.52
21:34:25 - VParent - VOLEN:41.52 | /var/www/html/clients/108595/audio/F853C65A-B5D1-738E-77FC-DBD81787F33A.mp3 | /var/app/video_pre_processor/assets/vidbot/_files/audio/Rock.mp3 | /var/www/html/clients/108595/audio/F853C65A-B5D1-738E-77FC-DBD81787F33A.wav
21:34:25 - AUDIO PROCESS RETURN VALUE: - 1
21:34:25 - update message_remote_queue set video_process_start = '2024-06-24 21:34:25' where queue_id = 306749
21:34:25 - CLIENT INFO DATA 
{"client_id":"108595","client_fk":"6C9F2577-52CB-A78F-38AF-7AB1C49C7FE8","client_rftp_id":"2247660","client_ilot_id":"3302567","client_cc_id":"87677","client_name":"Valley Honda","client_active":"1","client_regen":"0","client_desc":"","client_createdate":"2023-08-25 20:31:09","client_enddate":"","client_update":"2023-08-25 20:31:09","client_demo":"0","client_email_forward":"","client_salesperson_name":"","client_address":"4173 Ogden Ave","client_city":"Aurora","client_state":"IL","client_zip":"60504","client_phone":"6308515700","client_url":"www.valleyhonda.com\/","client_yt_uname":"","client_yt_pwd":"","client_md5":"c44e5f5f9431005761d4e1d1c07dbe6f","client_yt_verified":"0","client_yt_error":"0","client_video_size":"HDLARGE","client_tts_vm":"2","client_video_style":"RANDOM","client_mobile":"1","client_lat_lng":"","client_acc_id":"100000","SHOW_CARSTORY":"0"}
21:34:25 - Map Exists: /var/www/html/clients/108595/library/map.jpg
21:34:25 - Checking CUSTOM_INTRO
21:34:25 - Checking CUSTOM_OUTRO
21:34:25 - ================CREATE VIDEO START =========== 

21:34:25 - ================VIDEO JSON GEN START ==============
21:34:25 - Video Size 360
21:34:25 - ===========Video Theme font ================Dinot
21:34:25 - ==========Video fk : ==============F853C65A-B5D1-738E-77FC-DBD81787F33A
21:34:25 - ==============AUDIO VIDEO CONFIG : =========={"BG_MUSIC":"Rock","THEME_BG_COLOR":"ffffff","THEME_ACCENTS_COLOR":"532380","THEME_FONT_COLOR":"444444","THEME_FONT":"Dinot","THEME_STYLE":"Ren","BG_VOL_LEVEL":"0.25","AUDIO_VO":"","VIDEO_SIZE":"VIDEO_LARGE","CUSTOM_INTRO":"","CUSTOM_OUTRO":"","THEME_KEY":"100000_0_Auto_Default_0_ALL","THEME_RANK":"2","THEME_CONFIG":"RESELLER_CONFIG","OLD_BG_STYLE":"0"}
21:34:25 - CLIENT FKEY :  6C9F2577-52CB-A78F-38AF-7AB1C49C7FE8  VIDEO FKEY :  F853C65A-B5D1-738E-77FC-DBD81787F33A  VEHICLE FKEY :   
21:34:25 - INFO:: Video Type:SS Video Size:360 
21:34:25 - Return from CheckProfileVal function::0 - DISPLAY_MILEAGE - NO
21:34:25 - Return from CheckProfileVal function::0 - DISPLAY_MILEAGE - NO
21:34:25 - Return from CheckProfileVal function::0 - DISPLAY_PRICE - NO
21:34:25 - Return from CheckProfileVal function::0 - DISPLAY_PRICE - NO
21:34:25 - ==================ClipsGen START  =====================

21:34:25 - Return from CheckProfileVal function::0 - AUDIO_VO - NO_VO
21:34:25 - Return from CheckProfileVal function::0 - AUDIO_VO - NO_VO
21:34:25 - Return from CheckProfileVal function::0 - AUDIO_VO - LIVE_VO
21:34:25 - Return from CheckProfileVal function::0 - AUDIO_VO - LIVE_VO
21:34:25 - Return from CheckProfileVal function::0 - DISPLAY_OPTIONS - NO
21:34:25 - Return from CheckProfileVal function::0 - DISPLAY_OPTIONS - NO
21:34:25 - Return from CheckProfileVal function::0 - DISPLAY_PRICE - NO
21:34:25 - Return from CheckProfileVal function::0 - DISPLAY_PRICE - NO
21:34:25 - Return from CheckProfileVal function::0 - DISABLE_PRICE - YES
21:34:25 - Return from CheckProfileVal function::0 - DISPLAY_MILEAGE - NO
21:34:25 - Return from CheckProfileVal function::0 - DISPLAY_MILEAGE - NO
21:34:25 - Return from CheckProfileVal function::0 - DISPLAY_INFO - NO
21:34:25 - Return from CheckProfileVal function::0 - DISPLAY_INFO - NO
21:34:25 - Return from CheckProfileVal function::0 - DISPLAY_TITLE_WSNAME - NO
21:34:25 - Return from CheckProfileVal function::0 - DISPLAY_TITLE_WSNAME - NO
21:34:25 - Return from CheckProfileVal function::0 - DISPLAY_ALL_OVERLAYS - NO
21:34:25 - Return from CheckProfileVal function::0 - DISPLAY_ALL_OVERLAYS - NO
21:34:25 - Return from CheckProfileVal function::0 - DISPLAY_MAP - NO
21:34:25 - Return from CheckProfileVal function::0 - DISPLAY_MAP - NO
21:34:25 - =========THEME STYLE-FONT :Ren - Din  ============
21:34:25 - /usr/bin/sox  /var/app/video_pre_processor/assets/music/silence_3.wav /var/www/html/clients/108595/audio/F853C65A-B5D1-738E-77FC-DBD81787F33A.wav /var/www/html/clients/108595/audio/F853C65A-B5D1-738E-77FC-DBD81787F33A_info_audio.wav
21:34:25 - /var/app/video_pre_processor/assets/vidbot/_files/audio/Rock.mp3 PlayTime:479.71
21:34:25 - Return from CheckProfileVal function::0 - BG_MUSIC_OVER_ALL_CLIPS - YES
21:34:25 - Return from CheckProfileVal function::0 - BG_MUSIC_OVER_ALL_CLIPS - YES
21:34:25 - AUDIO TIMER: 
{"INTRO":0,"YEAR":2.85,"MODEL":4.36,"HIGH":5.51,"PRICE":13.32,"MILE":16.27,"ALL_OPTIONS":{"* General Options Intro":19.689999999999998,"Back-Up Camera":22.04,"Keyless Entry":23.32,"Steering wheel audio controls":24.55,"Remote Engine Start":26.72,"LED Headlights":28.16,"Traction Control":29.72,"Stability Control":31.029999999999998,"Lane Departure Warning":32.28,"ANTI-LOCK BRAKING SYSTEM":33.72,"Bluetooth":35.42},"OPTIONS":21.689999999999998,"OPTIONS_AUD_LENGTH":16.77,"ENDFILE":36.46}
21:34:25 - ===================ClipsGen END  ======================== 

21:34:25 - INFO:: VIDEO JSON : "F853C65A-B5D1-738E-77FC-DBD81787F33A.json"
21:34:25 - node /var/app/Vidbot-V2/dist/vidbot.js --input /var/www/html/clients/108595/video/F853C65A-B5D1-738E-77FC-DBD81787F33A.json --log debug > /var/www/html/clients/108595/video/F853C65A-B5D1-738E-77FC-DBD81787F33A.log