21:26:50 - Return from CheckProfileVal function::0 - DISPLAY_PRICE - NO
21:26:50 - Return from CheckProfileVal function::0 - DISABLE_PRICE - YES
21:26:50 - Return from CheckProfileVal function::0 - DISPLAY_MILEAGE - NO
21:26:50 - Return from CheckProfileVal function::0 - DISPLAY_MILEAGE - NO
21:26:50 - Return from CheckProfileVal function::0 - DISPLAY_INFO - NO
21:26:50 - Return from CheckProfileVal function::0 - DISPLAY_INFO - NO
21:26:50 - Return from CheckProfileVal function::0 - DISPLAY_TITLE_WSNAME - NO
21:26:50 - Return from CheckProfileVal function::0 - DISPLAY_TITLE_WSNAME - NO
21:26:50 - Return from CheckProfileVal function::0 - DISPLAY_ALL_OVERLAYS - NO
21:26:50 - Return from CheckProfileVal function::0 - DISPLAY_ALL_OVERLAYS - NO
21:26:50 - Return from CheckProfileVal function::0 - DISPLAY_MAP - NO
21:26:50 - Return from CheckProfileVal function::0 - DISPLAY_MAP - NO
21:26:50 - =========THEME STYLE-FONT :Ren - Din  ============
21:26:50 - /usr/bin/sox  /var/app/video_pre_processor/assets/music/silence_3.wav /var/www/html/clients/107793/audio/D8D2A8AA-F2DB-EF5E-55F4-96783D29FC91.wav /var/www/html/clients/107793/audio/D8D2A8AA-F2DB-EF5E-55F4-96783D29FC91_info_audio.wav
21:26:50 - /var/app/video_pre_processor/assets/vidbot/_files/audio/Concept8.mp3 PlayTime:364.43
21:26:50 - Return from CheckProfileVal function::0 - BG_MUSIC_OVER_ALL_CLIPS - YES
21:26:50 - Return from CheckProfileVal function::0 - BG_MUSIC_OVER_ALL_CLIPS - YES
21:26:50 - AUDIO TIMER: 
{"INTRO":0,"YEAR":1.75,"MODEL":3.26,"HIGH":4.17,"PRICE":9.86,"MILE":12.629999999999999,"ALL_OPTIONS":{"* General Options Intro":16.049999999999997,"Back-Up Camera":18.4,"LED Headlights":19.68,"Keyless Entry":21.24,"Traction Control":22.47,"Stability Control":23.779999999999998,"Steering wheel audio controls":25.029999999999998,"Lane Departure Warning":27.199999999999996,"ANTI-LOCK BRAKING SYSTEM":28.639999999999997,"Bluetooth":30.339999999999996,"Driver Air Bag":31.379999999999995},"OPTIONS":18.049999999999997,"OPTIONS_AUD_LENGTH":16.61,"ENDFILE":32.66}
21:26:50 - ===================ClipsGen END  ======================== 

21:26:50 - INFO:: VIDEO JSON : "D8D2A8AA-F2DB-EF5E-55F4-96783D29FC91.json"
21:26:50 - node /var/app/Vidbot-V2/dist/vidbot.js --input /var/www/html/clients/107793/video/D8D2A8AA-F2DB-EF5E-55F4-96783D29FC91.json --log debug > /var/www/html/clients/107793/video/D8D2A8AA-F2DB-EF5E-55F4-96783D29FC91.log
21:31:08 - Generated Video File./var/www/html/clients/107793/video/D8D2A8AA-F2DB-EF5E-55F4-96783D29FC91.mp4
21:31:08 - INFO:: Generated Video File./var/www/html/clients/107793/video/D8D2A8AA-F2DB-EF5E-55F4-96783D29FC91.mp4
21:31:08 - INFO:: Sprite & Bookmark Option(s) not enabled
21:31:08 - ================VIDEO JSON GEN END RETURN VALUE : 1 ============== 
21:31:08 - ================CREATE VIDEO END =========== 
 ERROR : { 0}
21:31:08 - Start Time:0
21:31:08 - 0##1.75##Take a ride in
21:31:08 - 1.75##3.26##The 2020
21:31:08 - 3.26##4.17##Camry
21:31:08 - 4.17##9.86##Toyota Camry is an affordable mid-size car. Reliable and great comfortable commuter car.
21:31:08 - 9.86##12.63##and it is priced below $20000
21:31:08 - 12.63##16.05##This Vehicle has less than 55000 miles
21:31:08 - Replacing VTT String * General Options Intro to Here are some of this Vehicle's great options
21:31:08 - 16.05##18.4##Here are some of this Vehicle's great options
21:31:08 - 18.4##19.68##Back-Up Camera
21:31:08 - 19.68##21.24##LED Headlights
21:31:08 - 21.24##22.47##Keyless Entry
21:31:08 - 22.47##23.78##Traction Control
21:31:08 - 23.78##25.03##Stability Control
21:31:08 - 25.03##27.2##Steering wheel audio controls
21:31:08 - 27.2##28.64##Lane Departure Warning
21:31:08 - 28.64##30.34##ANTI-LOCK BRAKING SYSTEM
21:31:08 - 30.34##31.38##Bluetooth
21:31:08 - 31.38##32.66##Driver Air Bag
21:31:08 - 32.66##35.72##Your new ride is just a phone call away
21:31:08 - Curl Response - {"error":"Video key not found [D8D2A8AA-F2DB-EF5E-55F4-96783D29FC91]"}
21:31:08 - Contents - /postVTTString/ -  - 
0##1.75##Take a ride in|||1.75##3.26##The 2020|||3.26##4.17##Camry|||4.17##9.86##Toyota Camry is an affordable mid-size car. Reliable and great comfortable commuter car.|||9.86##12.63##and it is priced below $20000|||12.63##16.05##This Vehicle has less than 55000 miles|||16.05##18.4##Here are some of this Vehicle's great options|||18.4##19.68##Back-Up Camera|||19.68##21.24##LED Headlights|||21.24##22.47##Keyless Entry|||22.47##23.78##Traction Control|||23.78##25.03##Stability Control|||25.03##27.2##Steering wheel audio controls|||27.2##28.64##Lane Departure Warning|||28.64##30.34##ANTI-LOCK BRAKING SYSTEM|||30.34##31.38##Bluetooth|||31.38##32.66##Driver Air Bag|||32.66##35.72##Your new ride is just a phone call away
21:31:08 - VIDEO JSON GEN RETURN VALUE: - 0
21:31:08 - update message_remote_queue set error=0, video = 1, error_message = concat( "", error_message ), process_start = '2024-06-24 21:26:47', audio_process_start = '2024-06-24 21:26:47', audio_process_end = '2024-06-24 21:26:50', video_process_start ='2024-06-24 21:26:50', video_process_end='2024-06-24 21:31:08' where queue_id = 306731
21:31:08 - ==34 - 1 Elapsed Time 261.9 ==

21:31:08 - update queue_status set stat_last_update=NOW(), type_cnt = 34, type_loop_cnt = 339 where type_val = 'V12'
21:31:09 - Curl Response - {"code":200,"status":"Success:PostServerProcessDetails Posted For IP [209.59.156.167] and Process [V12]"}
21:31:09 - Contents - /postServerProcessDetails/ - Success:PostServerProcessDetails Posted For IP [209.59.156.167] and Process [V12] - 200
21:31:09 - update queue_status set stat_last_update=NOW(), type_cnt = 34, type_loop_cnt = 339 where type_val = 'V12'
21:31:09 - Curl Response - {"code":200,"status":"Success:PostServerProcessDetails Posted For IP [209.59.156.167] and Process [V12]"}
21:31:09 - Contents - /postServerProcessDetails/ - Success:PostServerProcessDetails Posted For IP [209.59.156.167] and Process [V12] - 200
21:31:09 - ========== 34  - 210 mins 370.82294117647 Video Process / Start:2024-06-24 16:43:01 / Mod:11/16======
21:31:10 - Fetching  Video Jobs Mod Val : 11 Mod Limit : 16 Queue ID : 0 

21:31:10 - ========select * from message_remote_queue, hvo_data where queue_id%16 = 11 and image = 1 and video = 0 and error = 0 and hvo_queue_id = queue_id   order by high_priority_row desc, queue_id asc limit 1==================count =1
21:31:10 - Processing Auto VideoFKEY:0830F4D4-AF43-6264-017E-D1A503B7FDDC - QueueID:306747 
21:31:10 - CLIENT INFO  CLIENT_FK  : 9729703C-C235-5024-B90C-CF396C5C5529 ,CLIENT_INFO :{"client_id":"107904","client_fk":"9729703C-C235-5024-B90C-CF396C5C5529","client_rftp_id":"2266059","client_ilot_id":"3171986","client_cc_id":"5373897","client_name":"Landers Chrysler Jeep Dodge of Norman","client_active":"1","client_regen":"0","client_desc":"","client_createdate":"2019-04-30 20:54:58","client_enddate":"","client_update":"2019-04-30 20:54:58","client_demo":"0","client_email_forward":"","client_salesperson_name":"","client_address":"481 N Interstate Dr","client_city":"Norman","client_state":"OK","client_zip":"73069","client_phone":"4053218228","client_url":"www.landerscdjrnorman.com","client_yt_uname":"","client_yt_pwd":"","client_md5":"1ec620aad25c02b995d10c6a2277fe13","client_yt_verified":"0","client_yt_error":"0","client_video_size":"HDLARGE","client_tts_vm":"2","client_video_style":"RANDOM","client_mobile":"1","client_lat_lng":"","client_acc_id":"100000","SHOW_CARSTORY":"0"}
21:31:10 - Rest Call: /client/videoDetails/9729703C-C235-5024-B90C-CF396C5C5529?video_key=0830F4D4-AF43-6264-017E-D1A503B7FDDC
21:31:10 - Curl Response - {"vehicle_id":"24138392","vehicle_client_id":"107904","vehicle_fkey":"0830F4D4-AF43-6264-017E-D1A503B7FDDC","vehicle_uid":"1291638079","vehicle_vin":"1FA6P8SJXM5501129","vehicle_stock":"5501129W","vehicle_year":"2021","vehicle_make":"Ford","vehicle_model":"Mustang","vehicle_trim":"Shelby GT500","vehicle_price":"84999","vehicle_mileage":"6600","vehicle_int_color":"Gray","vehicle_ext_color":"Red","vehicle_body_type":"2dr Car","vehicle_listing_type":"Used","vehicle_citympg":"12","vehicle_hwympg":"18","vehicle_combmpg":"","vehicle_cylinders":"8","vehicle_engine_size":"5.2 L","vehicle_trans":"Automatic","vehicle_drivetrain":"RWD","vehicle_passengers":"0","vehicle_doors":"2","vehicle_certified":"0","vehicle_special":"0","vehicle_options":"Navigation System,Equipment Group 950A,Handling Package,Technology Package,9 Speakers,AM\/FM radio: SiriusXM,AM\/FM Stereo,CD player,Radio data system,Radio: B&O Sound System by Bang & Olufsen,SiriusXM Radio,SYNC 3 Communications & Entertainment System,Air Conditioning,Automatic temperature control,Front dual zone A\/C,Rear window defroster,Power driver seat,Power steering,Power windows,Remote keyless entry,Steering wheel mounted audio controls,Adaptive suspension,Four wheel independent suspension,Speed-sensing steering,Traction control,4-Wheel Disc Brakes,ABS brakes,Dual front impact airbags,Dual front side impact airbags,Emergency communication system: 911 Assist,Front anti-roll bar,Knee airbag,Low tire pressure warning,Occupant sensing airbag,Overhead airbag,Rear anti-roll bar,BLIS Blind Spot Information System,Brake assist,Electronic Stability Control,Exterior Parking Camera Rear,Delay-off headlights,Fully automatic headlights,High-Intensity Discharge Headlights,Panic alarm,Security system,Speed control,Bumpers: body-color,Heated Mirrors,Power door mirrors,Red Indoor Car Cover (Dealer Installed),Spoiler,Auto-dimming Rear-View mirror,Compass,Driver door bin,Driver vanity mirror,Exposed Carbon Fiber Instrument Panel,Front reading lights,Garage door transmitter,Illuminated entry,Leather-Trimmed Sport Seats,Outside temperature display,Passenger vanity mirror,Sport steering wheel,Tachometer,Telescoping steering wheel,Tilt steering wheel,Trip computer,Voice-Activated Touch-Screen Navigation System,Voltmeter,Climate Controlled Front Seats,Front Bucket Seats,Front Center Armrest,Heated front seats,Power passenger seat,Split folding rear seat,Ventilated front seats,Passenger door bin,20  Wheels,Alloy wheels,Wheels: 20  Flow Formed High Gloss Black Aluminum,Speed-Sensitive Wipers,Variably intermittent wipers,CLEAN CARFAX,Power Package","vehicle_desc":"Why buy from Landers CDJR of Norman? We redefine the car buying experience. With a commitment to exceptional service, unbeatable selection, and transparent pricing, we ensure every customer drives away satisfied!2021 Ford Mustang Shelby GT500 RedBLIS Blind Spot Information System, Equipment Group 950A, Handling Package, Heated Mirrors, Radio: B&O Sound System by Bang & Olufsen, Technology Package, Voice-Activated Touch-Screen Navigation System.5.2L V8 RWD 7-Speed AutomaticDiscover the Landers Advantage, where peace of mind meets performance. With our qualified pre-owned vehicles, enjoy the assurance of a 60-day, 2500-mile limited powertrain warranty, an additional 30-day, 1500-mile limited warranty, and a 5-day, 500-mile exchange policy. Drive confidently knowing your investment is backed by our commitment to quality, reliability, and customer satisfaction.","vehicle_img_url":"https:\/\/content.homenetiol.com\/2000150\/2065303\/640x480\/38ae61402a554126a30a6d56e771334a.jpg,https:\/\/content.homenetiol.com\/2000150\/2065303\/640x480\/55ca1ad5841a47508959dfeac4f9e3ea.jpg,https:\/\/content.homenetiol.com\/2000150\/2065303\/640x480\/95df18702da3458e899c2fb0606555a0.jpg,https:\/\/content.homenetiol.com\/2000150\/2065303\/640x480\/101f9e14ca6748fa834bd321db549eed.jpg,https:\/\/content.homenetiol.com\/2000150\/2065303\/640x480\/f4c9337b6c5a4293ae7737a52a994c78.jpg,https:\/\/content.homenetiol.com\/2000150\/2065303\/640x480\/a9c5af081ddd476fbd9bfa19957ff825.jpg,https:\/\/content.homenetiol.com\/2000150\/2065303\/640x480\/72db0f2609e84c7d9426475728a5782e.jpg,https:\/\/content.homenetiol.com\/2000150\/2065303\/640x480\/f97459a1af804e58b199b223a1ccb081.jpg,https:\/\/content.homenetiol.com\/2000150\/2065303\/640x480\/3ab35a4c054349fc95253b6bdb5ab134.jpg,https:\/\/content.homenetiol.com\/2000150\/2065303\/640x480\/cb4d86a7e87646bf891f41b1b0ae86b7.jpg,https:\/\/content.homenetiol.com\/2000150\/2065303\/640x480\/f230de902a814a85acbcf8eb847a13e0.jpg,https:\/\/content.homenetiol.com\/2000150\/2065303\/640x480\/3b5d3448b6364ea08e3e0513bfb488b7.jpg,https:\/\/content.homenetiol.com\/2000150\/2065303\/640x480\/f38a93a60007470997e63b72a1f383f5.jpg,https:\/\/content.homenetiol.com\/2000150\/2065303\/640x480\/490cdbda42e64ad6a54325a42946390c.jpg,https:\/\/content.homenetiol.com\/2000150\/2065303\/640x480\/7df9645bc94c46c1971f4ca87fb81ca5.jpg,https:\/\/content.homenetiol.com\/2000150\/2065303\/640x480\/a135b715a3c4458284fc880e2117d7dd.jpg,https:\/\/content.homenetiol.com\/2000150\/2065303\/640x480\/2519de62fd43414e91124e66eaf65002.jpg,https:\/\/content.homenetiol.com\/2000150\/2065303\/640x480\/3817658435414f94901e362d634ab170.jpg,https:\/\/content.homenetiol.com\/2000150\/2065303\/640x480\/635f2a9f380542078d026589b5e94cee.jpg,https:\/\/content.homenetiol.com\/2000150\/2065303\/640x480\/12ca9ce8da664f5d9d1c8a14e8560269.jpg","vehicle_overlay_time":"","vehicle_tts_text":"","vehicle_img_cnt":"","veh_more_info":"","vehicle_create_date":"2024-06-24 20:43:00","vehicle_updated_date":"","vehicle_last_update":"2024-06-24 20:43:00","vehicle_md5":"bca4ad54cd02ddef385b6ddb55ca72e2","vehicle_status":"N","vehicle_view_cnt":"0","vehicle_url":"","vehicle_murl":"","vehicle_https_url":"","vehicle_delete_flag":"0","vehicle_delete_time":"","yt_url":"","yt_key":"","yt_created_on":"","cf_url":"","cf_xml":""}
21:31:10 - Rest Call: /client/getAudioVideoConfig/9729703C-C235-5024-B90C-CF396C5C5529?listing_type=Used&video_type=Auto&certified=0&vehicle_make=Ford
21:31:10 - Curl Response - {"BG_MUSIC":"Concept2","THEME_BG_COLOR":"ffffff","THEME_ACCENTS_COLOR":"532380","THEME_FONT_COLOR":"444444","THEME_FONT":"Din","THEME_STYLE":"Ren","BG_VOL_LEVEL":"0.25","AUDIO_VO":"","VIDEO_SIZE":"VIDEO_LARGE","CUSTOM_INTRO":"","CUSTOM_OUTRO":"","THEME_KEY":"100000_0_Auto_Default_0_ALL","THEME_RANK":"2","THEME_CONFIG":"RESELLER_CONFIG","OLD_BG_STYLE":"0"}
21:31:10 - Return from CheckProfileVal function::0 - DISABLE_PRICE - YES
21:31:10 - Return from CheckProfileVal function::0 - DISABLE_MILEAGE - YES
21:31:10 - Return from CheckProfileVal function::0 - DISABLE_CARSTORY - YES
21:31:10 - Config Information for 0830F4D4-AF43-6264-017E-D1A503B7FDDC - Width:640 - CPO:0/0 - CF: - CS:0  - Intro: - Outro: - Ovleray: -THEME:100000_0_Auto_Default_0_ALL
21:31:10 - https://content.homenetiol.com/2000150/2065303/640x480/38ae61402a554126a30a6d56e771334a.jpg /var/www/html/clients/107904/images/0830F4D4-AF43-6264-017E-D1A503B7FDDC_1.jpg
21:31:10 - https://content.homenetiol.com/2000150/2065303/640x480/55ca1ad5841a47508959dfeac4f9e3ea.jpg /var/www/html/clients/107904/images/0830F4D4-AF43-6264-017E-D1A503B7FDDC_2.jpg
21:31:10 - https://content.homenetiol.com/2000150/2065303/640x480/95df18702da3458e899c2fb0606555a0.jpg /var/www/html/clients/107904/images/0830F4D4-AF43-6264-017E-D1A503B7FDDC_3.jpg
21:31:10 - https://content.homenetiol.com/2000150/2065303/640x480/101f9e14ca6748fa834bd321db549eed.jpg /var/www/html/clients/107904/images/0830F4D4-AF43-6264-017E-D1A503B7FDDC_4.jpg
21:31:10 - https://content.homenetiol.com/2000150/2065303/640x480/f4c9337b6c5a4293ae7737a52a994c78.jpg /var/www/html/clients/107904/images/0830F4D4-AF43-6264-017E-D1A503B7FDDC_5.jpg
21:31:10 - https://content.homenetiol.com/2000150/2065303/640x480/a9c5af081ddd476fbd9bfa19957ff825.jpg /var/www/html/clients/107904/images/0830F4D4-AF43-6264-017E-D1A503B7FDDC_6.jpg
21:31:10 - https://content.homenetiol.com/2000150/2065303/640x480/72db0f2609e84c7d9426475728a5782e.jpg /var/www/html/clients/107904/images/0830F4D4-AF43-6264-017E-D1A503B7FDDC_7.jpg
21:31:10 - https://content.homenetiol.com/2000150/2065303/640x480/f97459a1af804e58b199b223a1ccb081.jpg /var/www/html/clients/107904/images/0830F4D4-AF43-6264-017E-D1A503B7FDDC_8.jpg
21:31:10 - https://content.homenetiol.com/2000150/2065303/640x480/3ab35a4c054349fc95253b6bdb5ab134.jpg /var/www/html/clients/107904/images/0830F4D4-AF43-6264-017E-D1A503B7FDDC_9.jpg
21:31:10 - https://content.homenetiol.com/2000150/2065303/640x480/cb4d86a7e87646bf891f41b1b0ae86b7.jpg /var/www/html/clients/107904/images/0830F4D4-AF43-6264-017E-D1A503B7FDDC_10.jpg
21:31:10 - https://content.homenetiol.com/2000150/2065303/640x480/f230de902a814a85acbcf8eb847a13e0.jpg /var/www/html/clients/107904/images/0830F4D4-AF43-6264-017E-D1A503B7FDDC_11.jpg
21:31:10 - https://content.homenetiol.com/2000150/2065303/640x480/3b5d3448b6364ea08e3e0513bfb488b7.jpg /var/www/html/clients/107904/images/0830F4D4-AF43-6264-017E-D1A503B7FDDC_12.jpg
21:31:10 - https://content.homenetiol.com/2000150/2065303/640x480/f38a93a60007470997e63b72a1f383f5.jpg /var/www/html/clients/107904/images/0830F4D4-AF43-6264-017E-D1A503B7FDDC_13.jpg
21:31:10 - https://content.homenetiol.com/2000150/2065303/640x480/490cdbda42e64ad6a54325a42946390c.jpg /var/www/html/clients/107904/images/0830F4D4-AF43-6264-017E-D1A503B7FDDC_14.jpg
21:31:10 - https://content.homenetiol.com/2000150/2065303/640x480/7df9645bc94c46c1971f4ca87fb81ca5.jpg /var/www/html/clients/107904/images/0830F4D4-AF43-6264-017E-D1A503B7FDDC_15.jpg
21:31:10 - https://content.homenetiol.com/2000150/2065303/640x480/a135b715a3c4458284fc880e2117d7dd.jpg /var/www/html/clients/107904/images/0830F4D4-AF43-6264-017E-D1A503B7FDDC_16.jpg
21:31:10 - https://content.homenetiol.com/2000150/2065303/640x480/2519de62fd43414e91124e66eaf65002.jpg /var/www/html/clients/107904/images/0830F4D4-AF43-6264-017E-D1A503B7FDDC_17.jpg
21:31:10 - https://content.homenetiol.com/2000150/2065303/640x480/3817658435414f94901e362d634ab170.jpg /var/www/html/clients/107904/images/0830F4D4-AF43-6264-017E-D1A503B7FDDC_18.jpg
21:31:10 - https://content.homenetiol.com/2000150/2065303/640x480/635f2a9f380542078d026589b5e94cee.jpg /var/www/html/clients/107904/images/0830F4D4-AF43-6264-017E-D1A503B7FDDC_19.jpg
21:31:10 - https://content.homenetiol.com/2000150/2065303/640x480/12ca9ce8da664f5d9d1c8a14e8560269.jpg /var/www/html/clients/107904/images/0830F4D4-AF43-6264-017E-D1A503B7FDDC_20.jpg
21:31:10 - Image Count 20
21:31:10 - Setting Female English VO Constants | 0 | 0
21:31:10 - ====HVO Value:1, Audio Value:0===
21:31:10 - Return from CheckProfileVal function::0 - AUDIO_INTRO - 
21:31:10 - Return from CheckProfileVal function::0 - AUDIO_OUTRO - 
21:31:10 - ================Process HVO=========== 
 1
21:31:10 - ================CLIENT SELECT TTS VM VALUE=========== 
 2
21:31:10 - 2 - 2 - /var/app/video_pre_processor/assets/hvo/
21:31:10 - Setting Female English VO Constants | 0 | 2
21:31:10 - HVO Soap Call Method - AudoListWMIE 

21:31:10 - Getting Text For Audio Files
21:31:10 - HVO Soap Call Method - AudoListTWMIE 

21:31:10 - Getting Text For Audio Files emotionalFile 13
21:31:10 - HVO Soap Call Method - GetTTScripts 

21:31:10 - Getting Text For Audio Files introEmotionalFile 24
21:31:10 - HVO Soap Call Method - GetTTScripts 

21:31:10 - Getting Text For Audio Files scriptFile 21
21:31:11 - HVO Soap Call Method - GetTTScripts 

21:31:11 - ================TTS VM VALUE=========== 
 2
21:31:11 - ================GetVOFiles=========== 
 {"OptionFiles":[{"option_str":"* General Options Intro","option_file":"http:\/\/hvo.flickfusion.net\/audio\/options\/options_fe_audio_file_55.mp3","option_saftey":1},{"option_str":"Power Passenger Seat","option_file":"http:\/\/hvo.flickfusion.net\/audio\/options\/options_fe_audio_file_242.mp3","option_saftey":1},{"option_str":"Traction Control","option_file":"http:\/\/hvo.flickfusion.net\/audio\/options\/options_fe_audio_file_18.mp3","option_saftey":2},{"option_str":"Navigation System","option_file":"http:\/\/hvo.flickfusion.net\/audio\/options\/options_fe_audio_file_219.mp3","option_saftey":1},{"option_str":"Dual Air Bags","option_file":"http:\/\/hvo.flickfusion.net\/audio\/options\/options_fe_audio_file_154.mp3","option_saftey":2},{"option_str":"air conditioning","option_file":"http:\/\/hvo.flickfusion.net\/audio\/options\/options_fe_audio_file_1419.mp3","option_saftey":1},{"option_str":"Alloy Wheels","option_file":"http:\/\/hvo.flickfusion.net\/audio\/options\/options_fe_audio_file_68.mp3","option_saftey":1},{"option_str":"Power Steering","option_file":"http:\/\/hvo.flickfusion.net\/audio\/options\/options_fe_audio_file_244.mp3","option_saftey":1},{"option_str":"4-Wheel Disc Brakes","option_file":"http:\/\/hvo.flickfusion.net\/audio\/options\/options_fe_audio_file_63.mp3","option_saftey":1},{"option_str":"AM\/FM STEREO RADIO","option_file":"http:\/\/hvo.flickfusion.net\/audio\/options\/options_fe_audio_file_69.mp3","option_saftey":1},{"option_str":"Universal Garage Door Opener","option_file":"http:\/\/hvo.flickfusion.net\/audio\/options\/options_fe_audio_file_323.mp3","option_saftey":1},{"option_str":"Active Suspension System","option_file":"http:\/\/hvo.flickfusion.net\/audio\/options\/options_fe_audio_file_403.mp3","option_saftey":1},{"option_str":"SECURITY SYSTEM","option_file":"http:\/\/hvo.flickfusion.net\/audio\/options\/options_fe_audio_file_996.mp3","option_saftey":1},{"option_str":"Compass","option_file":"http:\/\/hvo.flickfusion.net\/audio\/options\/options_fe_audio_file_133.mp3","option_saftey":1},{"option_str":"Power Windows","option_file":"http:\/\/hvo.flickfusion.net\/audio\/options\/options_fe_audio_file_2.mp3","option_saftey":1},{"option_str":"Rear Window Defroster","option_file":"http:\/\/hvo.flickfusion.net\/audio\/options\/options_fe_audio_file_269.mp3","option_saftey":1},{"option_str":"SiriusXM Radio","option_file":"http:\/\/hvo.flickfusion.net\/audio\/options\/options_fe_audio_file_1395.mp3","option_saftey":1},{"option_str":"Trip Computer","option_file":"http:\/\/hvo.flickfusion.net\/audio\/options\/options_fe_audio_file_321.mp3","option_saftey":1},{"option_str":"CD Player","option_file":"http:\/\/hvo.flickfusion.net\/audio\/options\/options_fe_audio_file_111.mp3","option_saftey":1},{"option_str":"Heated Front Seats","option_file":"http:\/\/hvo.flickfusion.net\/audio\/options\/options_fe_audio_file_193.mp3","option_saftey":1},{"option_str":"Electronic Stability Control","option_file":"http:\/\/hvo.flickfusion.net\/audio\/options\/options_fe_audio_file_162.mp3","option_saftey":1},{"option_str":"Remote Keyless Entry","option_file":"http:\/\/hvo.flickfusion.net\/audio\/options\/options_fe_audio_file_273.mp3","option_saftey":1},{"option_str":"Brake Assist","option_file":"http:\/\/hvo.flickfusion.net\/audio\/options\/options_fe_audio_file_104.mp3","option_saftey":1},{"option_str":"Panic alarm","option_file":"http:\/\/hvo.flickfusion.net\/audio\/options\/options_fe_audio_file_966.mp3","option_saftey":1},{"option_str":"TACHOMETER","option_file":"http:\/\/hvo.flickfusion.net\/audio\/options\/options_fe_audio_file_299.mp3","option_saftey":1},{"option_str":"TECHNOLOGY Package","option_file":"http:\/\/hvo.flickfusion.net\/audio\/options\/options_fe_audio_file_385.mp3","option_saftey":1},{"option_str":"VENTILATED FRONT SEATS","option_file":"http:\/\/hvo.flickfusion.net\/audio\/options\/options_fe_audio_file_566.mp3","option_saftey":1},{"option_str":"FRONT BUCKET SEATS","option_file":"http:\/\/hvo.flickfusion.net\/audio\/options\/options_fe_audio_file_168.mp3","option_saftey":1},{"option_str":"Driver Vanity Mirror","option_file":"http:\/\/hvo.flickfusion.net\/audio\/options\/options_fe_audio_file_152.mp3","option_saftey":1},{"option_str":"Front Reading Lamps","option_file":"http:\/\/hvo.flickfusion.net\/audio\/options\/options_fe_audio_file_178.mp3","option_saftey":1},{"option_str":"Power Driver Seat","option_file":"http:\/\/hvo.flickfusion.net\/audio\/options\/options_fe_audio_file_237.mp3","option_saftey":1},{"option_str":"TILT STEERING WHEEL","option_file":"http:\/\/hvo.flickfusion.net\/audio\/options\/options_fe_audio_file_300.mp3","option_saftey":1},{"option_str":"Passenger Vanity Mirror","option_file":"http:\/\/hvo.flickfusion.net\/audio\/options\/options_fe_audio_file_233.mp3","option_saftey":1},{"option_str":"SPEED CONTROL","option_file":"http:\/\/hvo.flickfusion.net\/audio\/options\/options_fe_audio_file_375.mp3","option_saftey":1},{"option_str":"Heated Mirrors","option_file":"http:\/\/hvo.flickfusion.net\/audio\/options\/options_fe_audio_file_7.mp3","option_saftey":1},{"option_str":"Rear Spoiler","option_file":"http:\/\/hvo.flickfusion.net\/audio\/options\/options_fe_audio_file_10.mp3","option_saftey":1},{"option_str":"RADIO DATA SYSTEM","option_file":"http:\/\/hvo.flickfusion.net\/audio\/options\/options_fe_audio_file_692.mp3","option_saftey":1},{"option_str":"BLIND SPOT MIRRORS","option_file":"http:\/\/hvo.flickfusion.net\/audio\/options\/options_fe_audio_file_907.mp3","option_saftey":1},{"option_str":"ILLUMINATED ENTRY","option_file":"","option_saftey":1},{"option_str":" 4-PIECE FLOOR MAT SET ","option_file":"http:\/\/hvo.flickfusion.net\/audio\/options\/options_fe_audio_file_357.mp3","option_saftey":1},{"option_str":" 4-PIECE FLOOR MAT SET ","option_file":"http:\/\/hvo.flickfusion.net\/audio\/options\/options_fe_audio_file_357.mp3","option_saftey":1},{"option_str":"* Safety Options Intro","option_file":"http:\/\/hvo.flickfusion.net\/audio\/options\/options_fe_audio_file_19.mp3","option_saftey":2},{"option_str":"LOW TIRE PRESSURE WARNING","option_file":"http:\/\/hvo.flickfusion.net\/audio\/options\/options_fe_audio_file_689.mp3","option_saftey":1},{"option_str":"Sport Steering Wheel","option_file":"http:\/\/hvo.flickfusion.net\/audio\/options\/options_fe_audio_file_1482.mp3","option_saftey":1}],"yearFile":"http:\/\/hvo.flickfusion.net\/audio\/year\/year_fe_audio_file_56.mp3","makeFile":"http:\/\/hvo.flickfusion.net\/audio\/makes\/make_name_fe_audio_file_14.mp3","modelFile":"http:\/\/hvo.flickfusion.net\/audio\/mdlnames\/model_name_fe_audio_file_37.mp3","modelHighlightFile":"http:\/\/hvo.flickfusion.net\/audio\/models\/model_fe_audio_file_37.mp3","styleFile":"","bodytypeFile":"","transFile":"http:\/\/hvo.flickfusion.net\/audio\/domain_transmission\/transmission_fe_audio_file_2.mp3","engineFile":"http:\/\/hvo.flickfusion.net\/audio\/domain_enginesize\/enginesize_fe_audio_file_45.mp3","cylindersFile":"http:\/\/hvo.flickfusion.net\/audio\/domain_cylinders\/cylinder_fe_audio_file_6.mp3","driveTrainFile":"http:\/\/hvo.flickfusion.net\/audio\/domain_drivetrain\/drivetrain_fe_audio_file_3.mp3","priceFile":"http:\/\/hvo.flickfusion.net\/audio\/prices\/price_fe_audio_file_25.mp3","mileageFile":"http:\/\/hvo.flickfusion.net\/audio\/mileage\/miles_fe_audio_file_47.mp3","carfaxFile":"","emotionalFile":"http:\/\/hvo.flickfusion.net\/audio\/emotional\/emotional_fe_audio_file_13.mp3","introEmotionalFile":"http:\/\/hvo.flickfusion.net\/audio\/emotional\/ie_fe_audio_file_24.mp3","scriptFile":"http:\/\/hvo.flickfusion.net\/audio\/domain_scripts\/script_fe_audio_file_21.mp3","statusCode":"1","statusMessage":"Audio Files Sent"}
21:31:11 - /var/www/html/clients/107904/audio/0830F4D4-AF43-6264-017E-D1A503B7FDDC.wav
21:31:11 - ================Process HVO SOAP CALL CMD=========== 
 /usr/bin/sox
 STATUS CODE 
 1
21:31:11 - /var/app/video_pre_processor/assets/hvo/ie_fe_audio_file_24.wav PlayTime:1.75
21:31:11 - /var/app/video_pre_processor/assets/hvo/year_fe_audio_file_56.wav PlayTime:1.85
21:31:11 - /var/app/video_pre_processor/assets/hvo/model_name_fe_audio_file_37.wav PlayTime:0.81
21:31:11 - /var/app/video_pre_processor/assets/hvo/model_fe_audio_file_37.wav PlayTime:3.13
21:31:11 - Skipping VTT for BODY - bodytypeFile
21:31:11 - /var/app/video_pre_processor/assets/hvo/price_fe_audio_file_25.wav PlayTime:3.16
21:31:11 - KM Check : 6600 | 0
21:31:11 - /var/app/video_pre_processor/assets/hvo/miles_fe_audio_file_47.wav PlayTime:3.06
21:31:11 - Curl Response - {"error":"Vehicle options not found for vehicle key[0830F4D4-AF43-6264-017E-D1A503B7FDDC]"}
21:31:11 - ============={"error":"Vehicle options not found for vehicle key[0830F4D4-AF43-6264-017E-D1A503B7FDDC]"}===============
21:31:11 - Skipping Duplicate Option  4-PIECE FLOOR MAT SET 
21:31:11 - /var/app/video_pre_processor/assets/hvo/options_fe_audio_file_55.wav PlayTime:2.35
21:31:11 - /var/app/video_pre_processor/assets/hvo/options_fe_audio_file_242.wav PlayTime:1.33
21:31:11 - /var/app/video_pre_processor/assets/hvo/options_fe_audio_file_18.wav PlayTime:1.31
21:31:11 - /var/app/video_pre_processor/assets/hvo/options_fe_audio_file_219.wav PlayTime:1.59
21:31:11 - /var/app/video_pre_processor/assets/hvo/options_fe_audio_file_154.wav PlayTime:1.38
21:31:11 - /var/app/video_pre_processor/assets/hvo/options_fe_audio_file_1419.wav PlayTime:1.01
21:31:11 - /var/app/video_pre_processor/assets/hvo/options_fe_audio_file_68.wav PlayTime:1.15
21:31:11 - /var/app/video_pre_processor/assets/hvo/options_fe_audio_file_244.wav PlayTime:1.02
21:31:11 - /var/app/video_pre_processor/assets/hvo/options_fe_audio_file_63.wav PlayTime:1.57
21:31:11 - /var/app/video_pre_processor/assets/hvo/options_fe_audio_file_69.wav PlayTime:2.01
21:31:11 - /var/app/video_pre_processor/assets/hvo/options_fe_audio_file_323.wav PlayTime:2.35
21:31:11 - ======= ALL Options  ========== 
null
21:31:11 - /var/www/html/clients/107904/audio/0830F4D4-AF43-6264-017E-D1A503B7FDDC_option.wav
21:31:11 - /usr/bin/sox /var/app/video_pre_processor/assets/hvo/options_fe_audio_file_55.wav /var/app/video_pre_processor/assets/hvo/options_fe_audio_file_242.wav /var/app/video_pre_processor/assets/hvo/options_fe_audio_file_18.wav /var/app/video_pre_processor/assets/hvo/options_fe_audio_file_219.wav /var/app/video_pre_processor/assets/hvo/options_fe_audio_file_154.wav /var/app/video_pre_processor/assets/hvo/options_fe_audio_file_1419.wav /var/app/video_pre_processor/assets/hvo/options_fe_audio_file_68.wav /var/app/video_pre_processor/assets/hvo/options_fe_audio_file_244.wav /var/app/video_pre_processor/assets/hvo/options_fe_audio_file_63.wav /var/app/video_pre_processor/assets/hvo/options_fe_audio_file_69.wav /var/app/video_pre_processor/assets/hvo/options_fe_audio_file_323.wav /var/www/html/clients/107904/audio/0830F4D4-AF43-6264-017E-D1A503B7FDDC_option.wav
21:31:11 - /var/www/html/clients/107904/audio/0830F4D4-AF43-6264-017E-D1A503B7FDDC_option.wav PlayTime:17.07
21:31:11 - Skipping VTT for CARFAX - carfaxFile
21:31:11 - /var/app/video_pre_processor/assets/hvo/emotional_fe_audio_file_13.wav PlayTime:4.65
21:31:11 - /usr/bin/sox /var/app/video_pre_processor/assets/hvo/ie_fe_audio_file_24.wav /var/app/video_pre_processor/assets/hvo/year_fe_audio_file_56.wav /var/app/video_pre_processor/assets/hvo/model_name_fe_audio_file_37.wav /var/app/video_pre_processor/assets/hvo/model_fe_audio_file_37.wav /var/app/video_pre_processor/assets/hvo/price_fe_audio_file_25.wav /var/app/video_pre_processor/assets/hvo/miles_fe_audio_file_47.wav /var/www/html/clients/107904/audio/0830F4D4-AF43-6264-017E-D1A503B7FDDC_option.wav /var/app/video_pre_processor/assets/hvo/emotional_fe_audio_file_13.wav /var/www/html/clients/107904/audio/0830F4D4-AF43-6264-017E-D1A503B7FDDC_temp1.wav
21:31:11 - Return from CheckProfileVal function::0 - REPLACE_FULL_AUDIO - 
21:31:11 - Return from CheckProfileVal function::0 - REPLACE_FULL_AUDIO_NEW - 
21:31:11 - ========REPALCE AUDIO TRACK LISTING TYPE used \ n USED VALUE : 0 NEW AUDIO VALUE : { 0} ==============

21:31:11 - Video Length for audio merge: 0
21:31:11 - /root/bin/ffmpeg  -i /var/www/html/clients/107904/audio/0830F4D4-AF43-6264-017E-D1A503B7FDDC.wav -f mp3 -ar 44100 -ab 320 -ac 2 -y /var/www/html/clients/107904/audio/0830F4D4-AF43-6264-017E-D1A503B7FDDC.mp3
ffmpeg version N-109053-g9b13078c6a Copyright (c) 2000-2022 the FFmpeg developers
  built with gcc 5.4.0 (GCC)
  configuration: --prefix=/root/ffmpeg_build --pkg-config-flags=--static --extra-cflags=-I/root/ffmpeg_build/include --extra-ldflags=-L/root/ffmpeg_build/lib --extra-libs=-lpthread --extra-libs=-lm --bindir=/root/bin --enable-gpl --enable-libfdk_aac --enable-libfreetype --enable-libmp3lame --enable-libopus --enable-libvpx --enable-libx264 --enable-openssl --enable-libx265 --enable-nonfree --enable-libvidstab
  libavutil      57. 42.100 / 57. 42.100
  libavcodec     59. 52.101 / 59. 52.101
  libavformat    59. 34.101 / 59. 34.101
  libavdevice    59.  8.101 / 59.  8.101
  libavfilter     8. 50.100 /  8. 50.100
  libswscale      6.  8.112 /  6.  8.112
  libswresample   4.  9.100 /  4.  9.100
  libpostproc    56.  7.100 / 56.  7.100
Guessed Channel Layout for Input Stream #0.0 : stereo
Input #0, wav, from '/var/www/html/clients/107904/audio/0830F4D4-AF43-6264-017E-D1A503B7FDDC.wav':
  Duration: 00:00:35.49, bitrate: 1411 kb/s
  Stream #0:0: Audio: pcm_s16le ([1][0][0][0] / 0x0001), 44100 Hz, 2 channels, s16, 1411 kb/s
Stream mapping:
  Stream #0:0 -> #0:0 (pcm_s16le (native) -> mp3 (libmp3lame))
Press [q] to stop, [?] for help
[libmp3lame @ 0x353c480] Bitrate 320 is extremely low, maybe you mean 320k
The bitrate parameter is set too low. It takes bits/s as argument, not kbits/s
Output #0, mp3, to '/var/www/html/clients/107904/audio/0830F4D4-AF43-6264-017E-D1A503B7FDDC.mp3':
  Metadata:
    TSSE            : Lavf59.34.101
  Stream #0:0: Audio: mp3, 44100 Hz, stereo, s16p, 0 kb/s
    Metadata:
      encoder         : Lavc59.52.101 libmp3lame
size=       0kB time=-577014:32:22.77 bitrate=  -0.0kbits/s speed=N/A    
size=     101kB time=00:00:06.42 bitrate= 128.8kbits/s speed=12.8x    
size=     198kB time=00:00:12.61 bitrate= 128.4kbits/s speed=12.6x    
size=     256kB time=00:00:18.86 bitrate= 111.2kbits/s speed=12.5x    
size=     256kB time=00:00:25.54 bitrate=  82.1kbits/s speed=12.7x    
size=     256kB time=00:00:31.60 bitrate=  66.3kbits/s speed=12.6x    
size=     555kB time=00:00:35.47 bitrate= 128.2kbits/s speed=12.6x    
video:0kB audio:555kB subtitle:0kB other streams:0kB global headers:0kB muxing overhead: 0.044509%
21:31:14 - /var/app/video_pre_processor/assets/vidbot/_files/audio/Concept2.mp3 PlayTime:327.89
21:31:14 - Using Concept2.mp3 - /var/app/video_pre_processor/assets/vidbot/_files/audio/Concept2.mp3
21:31:14 - BG MUSIC FILE /var/app/video_pre_processor/assets/vidbot/_files/audio/Concept2.mp3 

21:31:14 - BG AUDIO CLIENT OVELAY VALUE : 0 

21:31:14 - /var/www/html/clients/107904/audio/0830F4D4-AF43-6264-017E-D1A503B7FDDC.wav PlayTime:35.49
21:31:14 - VParent - VOLEN:37.49 | /var/www/html/clients/107904/audio/0830F4D4-AF43-6264-017E-D1A503B7FDDC.mp3 | /var/app/video_pre_processor/assets/vidbot/_files/audio/Concept2.mp3 | /var/www/html/clients/107904/audio/0830F4D4-AF43-6264-017E-D1A503B7FDDC.wav
21:31:14 - AUDIO PROCESS RETURN VALUE: - 1
21:31:14 - update message_remote_queue set video_process_start = '2024-06-24 21:31:14' where queue_id = 306747
21:31:14 - CLIENT INFO DATA 
{"client_id":"107904","client_fk":"9729703C-C235-5024-B90C-CF396C5C5529","client_rftp_id":"2266059","client_ilot_id":"3171986","client_cc_id":"5373897","client_name":"Landers Chrysler Jeep Dodge of Norman","client_active":"1","client_regen":"0","client_desc":"","client_createdate":"2019-04-30 20:54:58","client_enddate":"","client_update":"2019-04-30 20:54:58","client_demo":"0","client_email_forward":"","client_salesperson_name":"","client_address":"481 N Interstate Dr","client_city":"Norman","client_state":"OK","client_zip":"73069","client_phone":"4053218228","client_url":"www.landerscdjrnorman.com","client_yt_uname":"","client_yt_pwd":"","client_md5":"1ec620aad25c02b995d10c6a2277fe13","client_yt_verified":"0","client_yt_error":"0","client_video_size":"HDLARGE","client_tts_vm":"2","client_video_style":"RANDOM","client_mobile":"1","client_lat_lng":"","client_acc_id":"100000","SHOW_CARSTORY":"0"}
21:31:14 - File Downloaded http://gcsimages.storage.googleapis.com/clients/107904/library/map.jpg - /var/www/html/clients/107904/library/map.jpg - FileSize:84.15 K
21:31:14 - Map Exists: /var/www/html/clients/107904/library/map.jpg
21:31:14 - Checking CUSTOM_INTRO
21:31:14 - Checking CUSTOM_OUTRO
21:31:14 - ================CREATE VIDEO START =========== 

21:31:14 - ================VIDEO JSON GEN START ==============
21:31:14 - Video Size 360
21:31:14 - ===========Video Theme font ================Dinot
21:31:14 - ==========Video fk : ==============0830F4D4-AF43-6264-017E-D1A503B7FDDC
21:31:14 - ==============AUDIO VIDEO CONFIG : =========={"BG_MUSIC":"Concept2","THEME_BG_COLOR":"ffffff","THEME_ACCENTS_COLOR":"532380","THEME_FONT_COLOR":"444444","THEME_FONT":"Dinot","THEME_STYLE":"Ren","BG_VOL_LEVEL":"0.25","AUDIO_VO":"","VIDEO_SIZE":"VIDEO_LARGE","CUSTOM_INTRO":"","CUSTOM_OUTRO":"","THEME_KEY":"100000_0_Auto_Default_0_ALL","THEME_RANK":"2","THEME_CONFIG":"RESELLER_CONFIG","OLD_BG_STYLE":"0"}
21:31:14 - CLIENT FKEY :  9729703C-C235-5024-B90C-CF396C5C5529  VIDEO FKEY :  0830F4D4-AF43-6264-017E-D1A503B7FDDC  VEHICLE FKEY :   
21:31:14 - INFO:: Video Type:SS Video Size:360 
21:31:14 - Return from CheckProfileVal function::0 - DISPLAY_MILEAGE - NO
21:31:14 - Return from CheckProfileVal function::0 - DISPLAY_MILEAGE - NO
21:31:14 - Return from CheckProfileVal function::0 - DISPLAY_PRICE - NO
21:31:14 - Return from CheckProfileVal function::0 - DISPLAY_PRICE - NO
21:31:14 - ==================ClipsGen START  =====================

21:31:14 - Return from CheckProfileVal function::0 - AUDIO_VO - NO_VO
21:31:14 - Return from CheckProfileVal function::0 - AUDIO_VO - NO_VO
21:31:14 - Return from CheckProfileVal function::0 - AUDIO_VO - LIVE_VO
21:31:14 - Return from CheckProfileVal function::0 - AUDIO_VO - LIVE_VO
21:31:14 - Return from CheckProfileVal function::0 - DISPLAY_OPTIONS - NO
21:31:14 - Return from CheckProfileVal function::0 - DISPLAY_OPTIONS - NO
21:31:14 - Return from CheckProfileVal function::0 - DISPLAY_PRICE - NO
21:31:14 - Return from CheckProfileVal function::0 - DISPLAY_PRICE - NO
21:31:14 - Return from CheckProfileVal function::0 - DISABLE_PRICE - YES
21:31:14 - Return from CheckProfileVal function::0 - DISPLAY_MILEAGE - NO
21:31:14 - Return from CheckProfileVal function::0 - DISPLAY_MILEAGE - NO
21:31:14 - Return from CheckProfileVal function::0 - DISPLAY_INFO - NO
21:31:14 - Return from CheckProfileVal function::0 - DISPLAY_INFO - NO
21:31:14 - Return from CheckProfileVal function::0 - DISPLAY_TITLE_WSNAME - NO
21:31:14 - Return from CheckProfileVal function::0 - DISPLAY_TITLE_WSNAME - NO
21:31:14 - Return from CheckProfileVal function::0 - DISPLAY_ALL_OVERLAYS - NO
21:31:14 - Return from CheckProfileVal function::0 - DISPLAY_ALL_OVERLAYS - NO
21:31:14 - Return from CheckProfileVal function::0 - DISPLAY_MAP - NO
21:31:14 - Return from CheckProfileVal function::0 - DISPLAY_MAP - NO
21:31:14 297 - ShellApp::ResizeImage - /var/www/html/clients/107904/library/map.jpg - /var/www/html/clients/107904/library/width_map_360.jpg - 640
21:31:14 - Check Height 409.6  0 - Image Type: 2
21:31:14 276 - ShellApp::CropJPEGImage - 640/325 - 409- 42 

21:31:14 - MAP : /var/www/html/clients/107904/library/map_360.jpg :  FILE SIZE : 161557
21:31:14 - =========THEME STYLE-FONT :Ren - Din  ============
21:31:14 - /usr/bin/sox  /var/app/video_pre_processor/assets/music/silence_3.wav /var/www/html/clients/107904/audio/0830F4D4-AF43-6264-017E-D1A503B7FDDC.wav /var/www/html/clients/107904/audio/0830F4D4-AF43-6264-017E-D1A503B7FDDC_info_audio.wav
21:31:14 - /var/app/video_pre_processor/assets/vidbot/_files/audio/Concept2.mp3 PlayTime:327.89
21:31:14 - Return from CheckProfileVal function::0 - BG_MUSIC_OVER_ALL_CLIPS - YES
21:31:14 - Return from CheckProfileVal function::0 - BG_MUSIC_OVER_ALL_CLIPS - YES
21:31:14 - AUDIO TIMER: 
{"INTRO":0,"YEAR":1.75,"MODEL":3.6,"HIGH":4.41,"PRICE":7.54,"MILE":10.7,"ALL_OPTIONS":{"* General Options Intro":13.76,"Power Passenger Seat":16.11,"Traction Control":17.439999999999998,"Navigation System":18.749999999999996,"Dual Air Bags":20.339999999999996,"air conditioning":21.719999999999995,"Alloy Wheels":22.729999999999997,"Power Steering":23.879999999999995,"4-Wheel Disc Brakes":24.899999999999995,"AM\/FM STEREO RADIO":26.469999999999995,"Universal Garage Door Opener":28.479999999999997},"OPTIONS":15.76,"OPTIONS_AUD_LENGTH":17.07,"ENDFILE":30.83}
21:31:14 - ===================ClipsGen END  ======================== 

21:31:14 - INFO:: VIDEO JSON : "0830F4D4-AF43-6264-017E-D1A503B7FDDC.json"
21:31:14 - node /var/app/Vidbot-V2/dist/vidbot.js --input /var/www/html/clients/107904/video/0830F4D4-AF43-6264-017E-D1A503B7FDDC.json --log debug > /var/www/html/clients/107904/video/0830F4D4-AF43-6264-017E-D1A503B7FDDC.log
21:37:08 - Generated Video File./var/www/html/clients/107904/video/0830F4D4-AF43-6264-017E-D1A503B7FDDC.mp4
21:37:08 - INFO:: Generated Video File./var/www/html/clients/107904/video/0830F4D4-AF43-6264-017E-D1A503B7FDDC.mp4
21:37:08 - INFO:: Sprite & Bookmark Option(s) not enabled
21:37:08 - ================VIDEO JSON GEN END RETURN VALUE : 1 ============== 
21:37:08 - ================CREATE VIDEO END =========== 
 ERROR : { 0}
21:37:08 - Start Time:0
21:37:08 - 0##1.75##Take a ride in
21:37:08 - 1.75##3.6##The 2021
21:37:08 - 3.6##4.41##Mustang
21:37:08 - 4.41##7.54##The Mustang is race-worthy and ready for the track.
21:37:08 - 7.54##10.7##and it is priced below $85000
21:37:08 - 10.7##13.76##This Vehicle has less than 7000 miles
21:37:08 - Replacing VTT String * General Options Intro to Here are some of this Vehicle's great options
21:37:08 - 13.76##16.11##Here are some of this Vehicle's great options
21:37:08 - 16.11##17.44##Power Passenger Seat
21:37:08 - 17.44##18.75##Traction Control
21:37:08 - 18.75##20.34##Navigation System
21:37:08 - 20.34##21.72##Dual Air Bags
21:37:08 - 21.72##22.73##air conditioning
21:37:08 - 22.73##23.88##Alloy Wheels
21:37:08 - 23.88##24.9##Power Steering
21:37:08 - 24.9##26.47##4-Wheel Disc Brakes
21:37:08 - 26.47##28.48##AM/FM STEREO RADIO
21:37:08 - 28.48##30.83##Universal Garage Door Opener
21:37:08 - 30.83##35.48##This beauty will even make your house keys jealous.  Drive it today!
21:37:08 - Curl Response - {"error":"Video key not found [0830F4D4-AF43-6264-017E-D1A503B7FDDC]"}
21:37:08 - Contents - /postVTTString/ -  - 
0##1.75##Take a ride in|||1.75##3.6##The 2021|||3.6##4.41##Mustang|||4.41##7.54##The Mustang is race-worthy and ready for the track.|||7.54##10.7##and it is priced below $85000|||10.7##13.76##This Vehicle has less than 7000 miles|||13.76##16.11##Here are some of this Vehicle's great options|||16.11##17.44##Power Passenger Seat|||17.44##18.75##Traction Control|||18.75##20.34##Navigation System|||20.34##21.72##Dual Air Bags|||21.72##22.73##air conditioning|||22.73##23.88##Alloy Wheels|||23.88##24.9##Power Steering|||24.9##26.47##4-Wheel Disc Brakes|||26.47##28.48##AM/FM STEREO RADIO|||28.48##30.83##Universal Garage Door Opener|||30.83##35.48##This beauty will even make your house keys jealous.  Drive it today!
21:37:08 - VIDEO JSON GEN RETURN VALUE: - 0
21:37:08 - update message_remote_queue set error=0, video = 1, error_message = concat( "", error_message ), process_start = '2024-06-24 21:31:10', audio_process_start = '2024-06-24 21:31:10', audio_process_end = '2024-06-24 21:31:14', video_process_start ='2024-06-24 21:31:14', video_process_end='2024-06-24 21:37:08' where queue_id = 306747
21:37:08 - ==35 - 1 Elapsed Time 358.22 ==

21:37:08 - update queue_status set stat_last_update=NOW(), type_cnt = 35, type_loop_cnt = 340 where type_val = 'V12'
21:37:08 - Curl Response - {"code":200,"status":"Success:PostServerProcessDetails Posted For IP [209.59.156.167] and Process [V12]"}
21:37:08 - Contents - /postServerProcessDetails/ - Success:PostServerProcessDetails Posted For IP [209.59.156.167] and Process [V12] - 200
21:37:08 - update queue_status set stat_last_update=NOW(), type_cnt = 35, type_loop_cnt = 340 where type_val = 'V12'
21:37:08 - Curl Response - {"code":200,"status":"Success:PostServerProcessDetails Posted For IP [209.59.156.167] and Process [V12]"}
21:37:08 - Contents - /postServerProcessDetails/ - Success:PostServerProcessDetails Posted For IP [209.59.156.167] and Process [V12] - 200
21:37:08 - ========== 35  - 216 mins 370.46285714286 Video Process / Start:2024-06-24 16:43:01 / Mod:11/16======
21:37:09 - Fetching  Video Jobs Mod Val : 11 Mod Limit : 16 Queue ID : 0 

21:37:09 - ========select * from message_remote_queue, hvo_data where queue_id%16 = 11 and image = 1 and video = 0 and error = 0 and hvo_queue_id = queue_id   order by high_priority_row desc, queue_id asc limit 1==================count =1
21:37:09 - Processing Auto VideoFKEY:77DB37F9-AF65-E103-8C96-E03147254996 - QueueID:306763 
21:37:09 - CLIENT INFO  CLIENT_FK  : 0256EE42-99B2-4314-41B8-8073B80A46F7 ,CLIENT_INFO :{"client_id":"19884","client_fk":"0256EE42-99B2-4314-41B8-8073B80A46F7","client_acc_id":"3","client_name":"Chapman Ford Lincoln Mercury Mazda","client_desc":"Chapman Ford Lincoln Mercury Mazda","client_color":"","client_player_color":"","client_textcolor":"","client_tts_text":"","client_tts_options":"","client_inactive":"0","client_createdate":"2024-03-29 10:59:34","client_enddate":"","client_update":"2024-04-24 11:35:27","client_email_forward":"","client_dealer_id":"2154832","client_franchise_number":"","client_salesperson_name":"","client_address":"","client_city":"","client_state":"","client_zip":"","client_phone":"","client_url":"","client_fb_id":"","client_km":"0","client_special_price":"0","client_demo":"0","client_utube_flag":"1","client_cvo":"0","client_tts":"1","client_live_uv":"1","client_live_overlay":"2","client_av":"1","client_gv":"0","client_af":"0","client_video_email":"0","client_carfax":"0","client_intro":"0","client_outro":"0","client_slider":"1","client_music_id":"36","client_ei":"0","client_tts_vm":"2","client_hvo":"1","client_mobile":"1","client_portal":"0","client_instavid":"0","client_new_stock_video":"0","client_vidmagnet":"1","client_auto_play":"1","client_cpo":"1","client_vid_stab":"0","client_vp":"0","client_xl":"0","client_carstory":"0","client_360_player":"0","client_ece":"0","client_capture_video":"0","client_new_cvo":"0","client_pip":"1","client_account_id":"","client_crm_email":"","client_crm_dealer_id":"","client_crm_dealer_key":"","client_archive":"0","client_damage_photo":"0","client_package":"3","client_video_size":"HDLARGE","client_video_style":"FULL","client_lat_lng":"","client_comments":"","SHOW_CARSTORY":"0"}
21:37:09 - Rest Call: /client/videoDetails/0256EE42-99B2-4314-41B8-8073B80A46F7?video_key=77DB37F9-AF65-E103-8C96-E03147254996
21:37:10 - Curl Response - {"video_id":"48826973","video_fk":"77DB37F9-AF65-E103-8C96-E03147254996","vehicle_id":"43067306","video_client_id":"19884","video_script":"Don't miss this 2024 Mazda. Make a great choice today with this must-have car. Learn more about this car by contacting the dealership today and complete your driving dreams.","video_tts_script":"Don't miss this 2024 Mazda. Make a great choice today with this must-have car. Learn more about this car by contacting the dealership today and complete your driving dreams.","video_flv":"","video_create_time":"2024-05-14 18:03:12","video_update_time":"2024-06-24 21:33:05","audio_length":"0","video_options":"BLACK  NAPPA LEATHER SEAT TRIM,JET BLACK MICA,Turbocharged,All Wheel Drive,Power Steering,ABS,4-Wheel Disc Brakes,Brake Assist,Brake Actuated Limited Slip Differential,Lithium Ion Traction Battery,Aluminum Wheels,Tires - Front Performance,Tires - Rear Performance,Temporary Spare Tire,Sun\/Moonroof,Generic Sun\/Moonroof,Panoramic Roof,Heated Mirrors,Power Mirror(s),Integrated Turn Signal Mirrors,Power Folding Mirrors,Rear Defrost,Privacy Glass,Intermittent Wipers,Variable Speed Intermittent Wipers,Rain Sensing Wipers,Rear Spoiler,Remote Trunk Release,Power Liftgate,Power Door Locks,Daytime Running Lights,Automatic Headlights,Headlights-Auto-Leveling,LED Headlights,Automatic Highbeams,AM\/FM Stereo,Premium Sound System,Satellite Radio,MP3 Player,Bluetooth Connection,Auxiliary Audio Input,HD Radio,Smart Device Integration,Requires Subscription,Steering Wheel Audio Controls,Telematics,Remote Engine Start,Requires Subscription,Power Driver Seat,Power Passenger Seat","video_custom_flag":"0","video_title":"2024 MAZDA CX-90 Egg Harbor, NJ","video_local_title":"2024 MAZDA CX-90 Egg Harbor, NJ","video_frames":"5","video_image_url":"\/avavids\/1\/clients\/19884\/images\/77DB37F9-AF65-E103-8C96-E03147254996_","video_pin_id":"0","video_tts_flag":"1","video_hvo_flag":"0","video_share":"1","video_default_flag":"1","video_imgsrc_urls":"https:\/\/content.homenetiol.com\/stock_images\/8\/cc_2024MAS11_01_640\/cc_2024MAS110062_01_640_41W.jpg,https:\/\/content.homenetiol.com\/stock_images\/5\/2024MAS11_640\/2024MAS110031_640_01.jpg,https:\/\/content.homenetiol.com\/stock_images\/5\/2024MAS11_640\/2024MAS110032_640_02.jpg,https:\/\/content.homenetiol.com\/stock_images\/5\/2024MAS11_640\/2024MAS110033_640_03.jpg,https:\/\/content.homenetiol.com\/stock_images\/5\/2024MAS11_640\/2024MAS110044_640_12.jpg","video_thumbnail_url":"","video_rendering_flag":"0","video_error_rendering":"Invalid https:\/\/content.homenetiol.com\/stock_images\/5\/2024MAS11_640\/2024MAS110032_640_02.jpgInvalid https:\/\/content.homenetiol.com\/stock_images\/5\/2024MAS11_640\/2024MAS110044_640_12.jpgYou need a minimum of four images the current image count is 3","video_view_cnt":"0","video_delete_flag":"0","video_delete_time":"","video_batch_proc":"0","video_meta_data":"","video_custom_default":"0","video_external_flv":"https:\/\/gcsimages.s3.us-west-001.backblazeb2.com\/clients\/19884\/video\/77DB37F9-AF65-E103-8C96-E03147254996.mp4","video_external_wflv":"","video_external_iflv":"","video_custom_uploaded":"0","vehicle_client_id":"19884","vehicle_fkey":"468CCB94-2B24-511F-69D7-41A0FFC4E00B","vehicle_uid":"1546545259","vehicle_vin":"JM3KKEHDXR1172588","vehicle_stock":"M90X24056","vehicle_year":"2024","vehicle_make":"Mazda","vehicle_model":"CX-90","vehicle_trim":"3.3 Turbo Premium Plus","vehicle_price":"50880","vehicle_mileage":"0","vehicle_int_color":"Black","vehicle_ext_color":"Jet Black Mica","vehicle_body_type":"Sport Utility","vehicle_listing_type":"New","vehicle_citympg":"","vehicle_hwympg":"","vehicle_combmpg":"","vehicle_cylinders":"6","vehicle_engine_size":"3.3","vehicle_trans":"Automatic","vehicle_drivetrain":"AWD","vehicle_passengers":"0","vehicle_doors":"4","vehicle_certified":"0","vehicle_special":"0","vehicle_options":"BLACK  NAPPA LEATHER SEAT TRIM,JET BLACK MICA,Turbocharged,All Wheel Drive,Power Steering,ABS,4-Wheel Disc Brakes,Brake Assist,Brake Actuated Limited Slip Differential,Lithium Ion Traction Battery,Aluminum Wheels,Tires - Front Performance,Tires - Rear Performance,Temporary Spare Tire,Sun\/Moonroof,Generic Sun\/Moonroof,Panoramic Roof,Heated Mirrors,Power Mirror(s),Integrated Turn Signal Mirrors,Power Folding Mirrors,Rear Defrost,Privacy Glass,Intermittent Wipers,Variable Speed Intermittent Wipers,Rain Sensing Wipers,Rear Spoiler,Remote Trunk Release,Power Liftgate,Power Door Locks,Daytime Running Lights,Automatic Headlights,Headlights-Auto-Leveling,LED Headlights,Automatic Highbeams,AM\/FM Stereo,Premium Sound System,Satellite Radio,MP3 Player,Bluetooth Connection,Auxiliary Audio Input,HD Radio,Smart Device Integration,Requires Subscription,Steering Wheel Audio Controls,Telematics,Remote Engine Start,Requires Subscription,Power Driver Seat,Power Passenger Seat","vehicle_desc":"2024 MAZDA CX-90 Egg Harbor, NJStock# M90X24056609-646-2000www.chapmannj.comFor more information on this vehicle and our full inventory, call 609-646-2000.Chapman Ford Lincoln Mercury Mazda6744 Black Horse PikeEgg Harbor, NJ 08234Don't miss this 2024 Mazda. Make a great choice today with this must-have car. Learn more about this car by contacting the dealership today and complete your driving dreams.","vehicle_chrome_style_id":"","vehicle_model_num":"","vehicle_stock_video":"0","vehicle_img_cnt":"5","veh_more_info":"","vehicle_create_date":"2024-05-14 18:03:12","vehicle_update_date":"2024-06-14 22:04:07","vehicle_md5":"035a8665606d9d0dec9a44faaa1844a8","vehicle_status":"U","vehicle_add":"0","vehicle_delete_flag":"0","vehicle_delete_time":""}
21:37:10 - Rest Call: /client/getAudioVideoConfig/0256EE42-99B2-4314-41B8-8073B80A46F7?listing_type=New&video_type=Auto&certified=0&vehicle_make=Mazda
21:37:10 - Curl Response - {"BG_MUSIC":"RF4_Country_Jazz","THEME_BG_COLOR":"ffffff","THEME_ACCENTS_COLOR":"047ec1","THEME_FONT_COLOR":"000000","THEME_FONT":"Din","THEME_STYLE":"Ren","BG_VOL_LEVEL":"0.25","AUDIO_VO":"VO","VIDEO_SIZE":"VIDEO_LARGE","CUSTOM_INTRO":"","CUSTOM_OUTRO":"","THEME_KEY":"3_0_Auto_Default_0_ALL","THEME_RANK":"2","THEME_CONFIG":"RESELLER_CONFIG","DISABLE_PRICE":"YES","DISPLAY_INFO":"NO","DISPLAY_MAP":"NO","DISPLAY_MILEAGE":"NO","DISPLAY_OPTIONS":"NO","DISPLAY_PRICE":"NO","OLD_BG_STYLE":"0"}
21:37:10 - Return from CheckProfileVal function::1 - DISABLE_PRICE - YES
21:37:10 - Return from CheckProfileVal function::0 - DISABLE_MILEAGE - YES
21:37:10 - Return from CheckProfileVal function::0 - DISABLE_CARSTORY - YES
21:37:10 - Config Information for 77DB37F9-AF65-E103-8C96-E03147254996 - Width:640 - CPO:1/0 - CF:0 - CS:0  - Intro:0 - Outro:0 - Ovleray:2 -THEME:3_0_Auto_Default_0_ALL
21:37:10 - https://content.homenetiol.com/stock_images/8/cc_2024MAS11_01_640/cc_2024MAS110062_01_640_41W.jpg /var/www/html/clients/19884/images/77DB37F9-AF65-E103-8C96-E03147254996_1.jpg
21:37:10 - https://content.homenetiol.com/stock_images/5/2024MAS11_640/2024MAS110031_640_01.jpg /var/www/html/clients/19884/images/77DB37F9-AF65-E103-8C96-E03147254996_2.jpg
21:37:10 - https://content.homenetiol.com/stock_images/5/2024MAS11_640/2024MAS110032_640_02.jpg /var/www/html/clients/19884/images/77DB37F9-AF65-E103-8C96-E03147254996_3.jpg
21:37:10 - https://content.homenetiol.com/stock_images/5/2024MAS11_640/2024MAS110033_640_03.jpg /var/www/html/clients/19884/images/77DB37F9-AF65-E103-8C96-E03147254996_4.jpg
21:37:10 - https://content.homenetiol.com/stock_images/5/2024MAS11_640/2024MAS110044_640_12.jpg /var/www/html/clients/19884/images/77DB37F9-AF65-E103-8C96-E03147254996_5.jpg
21:37:10 - Image Count 5
21:37:10 - Setting Female English VO Constants | 0 | 0
21:37:10 - ====HVO Value:1, Audio Value:0===
21:37:10 - Return from CheckProfileVal function::0 - AUDIO_INTRO - 
21:37:10 - Return from CheckProfileVal function::0 - AUDIO_OUTRO - 
21:37:10 - ================Process HVO=========== 
 1
21:37:10 - ================CLIENT SELECT TTS VM VALUE=========== 
 2
21:37:10 - 2 - 2 - /var/app/video_pre_processor/assets/hvo/
21:37:10 - Setting Female English VO Constants | 0 | 2
21:37:10 - HVO Soap Call Method - AudoListWMIE 

21:37:10 - Getting Text For Audio Files
21:37:10 - HVO Soap Call Method - AudoListTWMIE 

21:37:10 - Getting Text For Audio Files emotionalFile 11
21:37:10 - HVO Soap Call Method - GetTTScripts 

21:37:10 - Getting Text For Audio Files introEmotionalFile 21
21:37:10 - HVO Soap Call Method - GetTTScripts 

21:37:10 - Getting Text For Audio Files scriptFile 21
21:37:10 - HVO Soap Call Method - GetTTScripts 

21:37:10 - ================TTS VM VALUE=========== 
 2
21:37:10 - ================GetVOFiles=========== 
 {"OptionFiles":[{"option_str":"* General Options Intro","option_file":"http:\/\/hvo.flickfusion.net\/audio\/options\/options_fe_audio_file_55.mp3","option_saftey":1},{"option_str":"Power Passenger Seat","option_file":"http:\/\/hvo.flickfusion.net\/audio\/options\/options_fe_audio_file_242.mp3","option_saftey":1},{"option_str":"ANTI-LOCK BRAKING SYSTEM","option_file":"http:\/\/hvo.flickfusion.net\/audio\/options\/options_fe_audio_file_70.mp3","option_saftey":1},{"option_str":"Power Liftgate","option_file":"http:\/\/hvo.flickfusion.net\/audio\/options\/options_fe_audio_file_238.mp3","option_saftey":1},{"option_str":"All Wheel Drive","option_file":"http:\/\/hvo.flickfusion.net\/audio\/options\/options_fe_audio_file_82.mp3","option_saftey":1},{"option_str":"Steering wheel audio controls","option_file":"http:\/\/hvo.flickfusion.net\/audio\/options\/options_fe_audio_file_296.mp3","option_saftey":1},{"option_str":"LED Headlights","option_file":"http:\/\/hvo.flickfusion.net\/audio\/options\/options_fe_audio_file_1349.mp3","option_saftey":1},{"option_str":"Remote Engine Start","option_file":"http:\/\/hvo.flickfusion.net\/audio\/options\/options_fe_audio_file_272.mp3","option_saftey":1},{"option_str":"Bluetooth","option_file":"http:\/\/hvo.flickfusion.net\/audio\/options\/options_fe_audio_file_846.mp3","option_saftey":1},{"option_str":"Power Steering","option_file":"http:\/\/hvo.flickfusion.net\/audio\/options\/options_fe_audio_file_244.mp3","option_saftey":1},{"option_str":"4-Wheel Disc Brakes","option_file":"http:\/\/hvo.flickfusion.net\/audio\/options\/options_fe_audio_file_63.mp3","option_saftey":1},{"option_str":"Aluminum Wheels","option_file":"http:\/\/hvo.flickfusion.net\/audio\/options\/options_fe_audio_file_83.mp3","option_saftey":1},{"option_str":"Premium Sound System","option_file":"http:\/\/hvo.flickfusion.net\/audio\/options\/options_fe_audio_file_248.mp3","option_saftey":1},{"option_str":"AM\/FM STEREO RADIO","option_file":"http:\/\/hvo.flickfusion.net\/audio\/options\/options_fe_audio_file_69.mp3","option_saftey":1},{"option_str":"power folding mirrors","option_file":"","option_saftey":1},{"option_str":"Rear Defrost","option_file":"http:\/\/hvo.flickfusion.net\/audio\/options\/options_fe_audio_file_259.mp3","option_saftey":1},{"option_str":"Power Door Locks","option_file":"http:\/\/hvo.flickfusion.net\/audio\/options\/options_fe_audio_file_234.mp3","option_saftey":1},{"option_str":"MP3 Player","option_file":"http:\/\/hvo.flickfusion.net\/audio\/options\/options_fe_audio_file_211.mp3","option_saftey":1},{"option_str":"Brake Assist","option_file":"http:\/\/hvo.flickfusion.net\/audio\/options\/options_fe_audio_file_104.mp3","option_saftey":1},{"option_str":"Auxiliary Audio Input","option_file":"http:\/\/hvo.flickfusion.net\/audio\/options\/options_fe_audio_file_95.mp3","option_saftey":1},{"option_str":"Satellite Radio","option_file":"http:\/\/hvo.flickfusion.net\/audio\/options\/options_fe_audio_file_279.mp3","option_saftey":1},{"option_str":"Leather Seats","option_file":"http:\/\/hvo.flickfusion.net\/audio\/options\/options_fe_audio_file_206.mp3","option_saftey":1},{"option_str":"Daytime Running Lights","option_file":"http:\/\/hvo.flickfusion.net\/audio\/options\/options_fe_audio_file_142.mp3","option_saftey":1},{"option_str":"HD Radio","option_file":"http:\/\/hvo.flickfusion.net\/audio\/options\/options_fe_audio_file_452.mp3","option_saftey":1},{"option_str":"Remote Trunk Release","option_file":"http:\/\/hvo.flickfusion.net\/audio\/options\/options_fe_audio_file_275.mp3","option_saftey":1},{"option_str":"Panoramic Roof","option_file":"http:\/\/hvo.flickfusion.net\/audio\/options\/options_fe_audio_file_347.mp3","option_saftey":1},{"option_str":"Power Driver Seat","option_file":"http:\/\/hvo.flickfusion.net\/audio\/options\/options_fe_audio_file_237.mp3","option_saftey":1},{"option_str":"Privacy Glass","option_file":"http:\/\/hvo.flickfusion.net\/audio\/options\/options_fe_audio_file_249.mp3","option_saftey":1},{"option_str":"Turbocharged","option_file":"http:\/\/hvo.flickfusion.net\/audio\/options\/options_fe_audio_file_322.mp3","option_saftey":1},{"option_str":"Rain Sensing Wipers","option_file":"http:\/\/hvo.flickfusion.net\/audio\/options\/options_fe_audio_file_254.mp3","option_saftey":1},{"option_str":"Heated Mirrors","option_file":"http:\/\/hvo.flickfusion.net\/audio\/options\/options_fe_audio_file_7.mp3","option_saftey":1},{"option_str":"Integrated Turn Signal Mirrors","option_file":"http:\/\/hvo.flickfusion.net\/audio\/options\/options_fe_audio_file_198.mp3","option_saftey":1},{"option_str":"Telematics","option_file":"http:\/\/hvo.flickfusion.net\/audio\/options\/options_fe_audio_file_303.mp3","option_saftey":1},{"option_str":"Tires - Front Performance","option_file":"http:\/\/hvo.flickfusion.net\/audio\/options\/options_fe_audio_file_311.mp3","option_saftey":1},{"option_str":"Rear Spoiler","option_file":"http:\/\/hvo.flickfusion.net\/audio\/options\/options_fe_audio_file_10.mp3","option_saftey":1},{"option_str":"Tires - Rear Performance","option_file":"http:\/\/hvo.flickfusion.net\/audio\/options\/options_fe_audio_file_316.mp3","option_saftey":1},{"option_str":"Sun\/Moonroof","option_file":"http:\/\/hvo.flickfusion.net\/audio\/options\/options_fe_audio_file_1484.mp3","option_saftey":1},{"option_str":"Variable Speed Intermittent Wipers","option_file":"http:\/\/hvo.flickfusion.net\/audio\/options\/options_fe_audio_file_325.mp3","option_saftey":1},{"option_str":"Smart Device Integration","option_file":"http:\/\/hvo.flickfusion.net\/audio\/options\/options_fe_audio_file_1480.mp3","option_saftey":1}],"yearFile":"http:\/\/hvo.flickfusion.net\/audio\/year\/year_fe_audio_file_66.mp3","makeFile":"http:\/\/hvo.flickfusion.net\/audio\/makes\/make_name_fe_audio_file_32.mp3","modelFile":"","modelHighlightFile":"","styleFile":"","bodytypeFile":"","transFile":"http:\/\/hvo.flickfusion.net\/audio\/domain_transmission\/transmission_fe_audio_file_2.mp3","engineFile":"http:\/\/hvo.flickfusion.net\/audio\/domain_enginesize\/enginesize_fe_audio_file_39.mp3","cylindersFile":"http:\/\/hvo.flickfusion.net\/audio\/domain_cylinders\/cylinder_fe_audio_file_5.mp3","driveTrainFile":"http:\/\/hvo.flickfusion.net\/audio\/domain_drivetrain\/drivetrain_fe_audio_file_4.mp3","priceFile":"","mileageFile":"","carfaxFile":"","emotionalFile":"http:\/\/hvo.flickfusion.net\/audio\/emotional\/emotional_fe_audio_file_11.mp3","introEmotionalFile":"http:\/\/hvo.flickfusion.net\/audio\/emotional\/ie_fe_audio_file_21.mp3","scriptFile":"http:\/\/hvo.flickfusion.net\/audio\/domain_scripts\/script_fe_audio_file_21.mp3","statusCode":"2","statusMessage":"Year or Model is Empty"}
21:37:10 - /var/www/html/clients/19884/audio/77DB37F9-AF65-E103-8C96-E03147254996.wav
21:37:10 - ================Process HVO SOAP CALL CMD=========== 
 /usr/bin/sox
 STATUS CODE 
 2
21:37:10 - /var/app/video_pre_processor/assets/hvo/script_fe_audio_file_21.wav PlayTime:10.69
21:37:10 - Skipping VTT for HIGH - modelHighlightFile
21:37:10 - Skipping VTT for BODY - bodytypeFile
21:37:10 - Skipping VTT for PRICE - priceFile
21:37:10 - Skipping VTT for MILE - mileageFile
21:37:10 - Curl Response - {"exterior":["Rain Sensing Wipers","Headlights, Self-leveling","Exterior Mirrors, Power Folding","Moonroof","Turbocharged","Panoramic Roof","Heated Mirrors","All Wheel Drive","Aluminum Wheels","Rear Spoiler","Remote Engine Start","Power Liftgate","Power Mirrors","Brake Assist","Intermittent Wipers","Daytime Running Lights","Integrated Turn Signal Mirrors","Led Headlights","Remote Trunk Release","4-wheel Disc Brakes","Auto Headlight On\/off","Privacy Glass","Variable Speed Intermittent Wipers"],"interior":["Smart Device Integration","Hd Radio","Satellite Radio","Auxiliary Audio Input","Steering Wheel Audio Controls","Premium Sound System","Mp3 Player","Power Door Locks","Power Steering","Rear Defrost","Telematics","Power Driver Seat","Power Passenger Seat","Sun\/moonroof","Rear Defroster","Am\/fm Stereo Radio"]}
21:37:10 - ============={"exterior":["Rain Sensing Wipers","Headlights, Self-leveling","Exterior Mirrors, Power Folding","Moonroof","Turbocharged","Panoramic Roof","Heated Mirrors","All Wheel Drive","Aluminum Wheels","Rear Spoiler","Remote Engine Start","Power Liftgate","Power Mirrors","Brake Assist","Intermittent Wipers","Daytime Running Lights","Integrated Turn Signal Mirrors","Led Headlights","Remote Trunk Release","4-wheel Disc Brakes","Auto Headlight On\/off","Privacy Glass","Variable Speed Intermittent Wipers"],"interior":["Smart Device Integration","Hd Radio","Satellite Radio","Auxiliary Audio Input","Steering Wheel Audio Controls","Premium Sound System","Mp3 Player","Power Door Locks","Power Steering","Rear Defrost","Telematics","Power Driver Seat","Power Passenger Seat","Sun\/moonroof","Rear Defroster","Am\/fm Stereo Radio"]}===============
21:37:10 - /var/app/video_pre_processor/assets/hvo/options_fe_audio_file_55.wav PlayTime:2.35
21:37:10 - /var/app/video_pre_processor/assets/hvo/options_fe_audio_file_254.wav PlayTime:1.59
21:37:10 - /var/app/video_pre_processor/assets/hvo/options_fe_audio_file_322.wav PlayTime:1.18
21:37:10 - /var/app/video_pre_processor/assets/hvo/options_fe_audio_file_347.wav PlayTime:1.41
21:37:10 - /var/app/video_pre_processor/assets/hvo/options_fe_audio_file_7.wav PlayTime:1.02
21:37:10 - /var/app/video_pre_processor/assets/hvo/options_fe_audio_file_82.wav PlayTime:1.18
21:37:10 - /var/app/video_pre_processor/assets/hvo/options_fe_audio_file_83.wav PlayTime:1.2
21:37:10 - /var/app/video_pre_processor/assets/hvo/options_fe_audio_file_10.wav PlayTime:1.1
21:37:10 - /var/app/video_pre_processor/assets/hvo/options_fe_audio_file_272.wav PlayTime:1.44
21:37:10 - /var/app/video_pre_processor/assets/hvo/options_fe_audio_file_238.wav PlayTime:1.2
21:37:10 - /var/app/video_pre_processor/assets/hvo/options_fe_audio_file_104.wav PlayTime:1.12
21:37:10 - ======= ALL Options  ========== 
null
21:37:10 - /var/www/html/clients/19884/audio/77DB37F9-AF65-E103-8C96-E03147254996_option.wav
21:37:10 - /usr/bin/sox /var/app/video_pre_processor/assets/hvo/options_fe_audio_file_55.wav /var/app/video_pre_processor/assets/hvo/options_fe_audio_file_254.wav /var/app/video_pre_processor/assets/hvo/options_fe_audio_file_322.wav /var/app/video_pre_processor/assets/hvo/options_fe_audio_file_347.wav /var/app/video_pre_processor/assets/hvo/options_fe_audio_file_7.wav /var/app/video_pre_processor/assets/hvo/options_fe_audio_file_82.wav /var/app/video_pre_processor/assets/hvo/options_fe_audio_file_83.wav /var/app/video_pre_processor/assets/hvo/options_fe_audio_file_10.wav /var/app/video_pre_processor/assets/hvo/options_fe_audio_file_272.wav /var/app/video_pre_processor/assets/hvo/options_fe_audio_file_238.wav /var/app/video_pre_processor/assets/hvo/options_fe_audio_file_104.wav /var/www/html/clients/19884/audio/77DB37F9-AF65-E103-8C96-E03147254996_option.wav
21:37:10 - /var/www/html/clients/19884/audio/77DB37F9-AF65-E103-8C96-E03147254996_option.wav PlayTime:14.79
21:37:10 - Skipping VTT for CARFAX - carfaxFile
21:37:10 - /var/app/video_pre_processor/assets/hvo/emotional_fe_audio_file_11.wav PlayTime:4.88
21:37:10 - /usr/bin/sox /var/app/video_pre_processor/assets/hvo/script_fe_audio_file_21.wav /var/www/html/clients/19884/audio/77DB37F9-AF65-E103-8C96-E03147254996_option.wav /var/app/video_pre_processor/assets/hvo/emotional_fe_audio_file_11.wav /var/www/html/clients/19884/audio/77DB37F9-AF65-E103-8C96-E03147254996_temp1.wav
21:37:10 - Return from CheckProfileVal function::0 - REPLACE_FULL_AUDIO - 
21:37:10 - Return from CheckProfileVal function::0 - REPLACE_FULL_AUDIO_NEW - 
21:37:10 - ========REPALCE AUDIO TRACK LISTING TYPE new \ n USED VALUE : 0 NEW AUDIO VALUE : { 0} ==============

21:37:10 - Video Length for audio merge: 0
21:37:10 - /root/bin/ffmpeg  -i /var/www/html/clients/19884/audio/77DB37F9-AF65-E103-8C96-E03147254996.wav -f mp3 -ar 44100 -ab 320 -ac 2 -y /var/www/html/clients/19884/audio/77DB37F9-AF65-E103-8C96-E03147254996.mp3
ffmpeg version N-109053-g9b13078c6a Copyright (c) 2000-2022 the FFmpeg developers
  built with gcc 5.4.0 (GCC)
  configuration: --prefix=/root/ffmpeg_build --pkg-config-flags=--static --extra-cflags=-I/root/ffmpeg_build/include --extra-ldflags=-L/root/ffmpeg_build/lib --extra-libs=-lpthread --extra-libs=-lm --bindir=/root/bin --enable-gpl --enable-libfdk_aac --enable-libfreetype --enable-libmp3lame --enable-libopus --enable-libvpx --enable-libx264 --enable-openssl --enable-libx265 --enable-nonfree --enable-libvidstab
  libavutil      57. 42.100 / 57. 42.100
  libavcodec     59. 52.101 / 59. 52.101
  libavformat    59. 34.101 / 59. 34.101
  libavdevice    59.  8.101 / 59.  8.101
  libavfilter     8. 50.100 /  8. 50.100
  libswscale      6.  8.112 /  6.  8.112
  libswresample   4.  9.100 /  4.  9.100
  libpostproc    56.  7.100 / 56.  7.100
Guessed Channel Layout for Input Stream #0.0 : stereo
Input #0, wav, from '/var/www/html/clients/19884/audio/77DB37F9-AF65-E103-8C96-E03147254996.wav':
  Duration: 00:00:30.36, bitrate: 1411 kb/s
  Stream #0:0: Audio: pcm_s16le ([1][0][0][0] / 0x0001), 44100 Hz, 2 channels, s16, 1411 kb/s
Stream mapping:
  Stream #0:0 -> #0:0 (pcm_s16le (native) -> mp3 (libmp3lame))
Press [q] to stop, [?] for help
[libmp3lame @ 0x316d480] Bitrate 320 is extremely low, maybe you mean 320k
The bitrate parameter is set too low. It takes bits/s as argument, not kbits/s
Output #0, mp3, to '/var/www/html/clients/19884/audio/77DB37F9-AF65-E103-8C96-E03147254996.mp3':
  Metadata:
    TSSE            : Lavf59.34.101
  Stream #0:0: Audio: mp3, 44100 Hz, stereo, s16p, 0 kb/s
    Metadata:
      encoder         : Lavc59.52.101 libmp3lame
size=       0kB time=-577014:32:22.77 bitrate=  -0.0kbits/s speed=N/A    
size=     110kB time=00:00:07.05 bitrate= 128.3kbits/s speed=14.1x    
size=     224kB time=00:00:14.29 bitrate= 128.1kbits/s speed=14.1x    
size=     256kB time=00:00:21.08 bitrate=  99.5kbits/s speed=  14x    
size=     256kB time=00:00:27.74 bitrate=  75.6kbits/s speed=13.8x    
size=     475kB time=00:00:30.35 bitrate= 128.3kbits/s speed=13.7x    
video:0kB audio:475kB subtitle:0kB other streams:0kB global headers:0kB muxing overhead: 0.052004%
21:37:13 - /var/app/video_pre_processor/assets/vidbot/_files/audio/RF4_Country_Jazz.mp3 PlayTime:320.5
21:37:13 - Using RF4_Country_Jazz.mp3 - /var/app/video_pre_processor/assets/vidbot/_files/audio/RF4_Country_Jazz.mp3
21:37:13 - BG MUSIC FILE /var/app/video_pre_processor/assets/vidbot/_files/audio/RF4_Country_Jazz.mp3 

21:37:13 - BG AUDIO CLIENT OVELAY VALUE : 2 

21:37:13 - /var/www/html/clients/19884/audio/77DB37F9-AF65-E103-8C96-E03147254996.wav PlayTime:30.36
21:37:13 - VParent - VOLEN:32.36 | /var/www/html/clients/19884/audio/77DB37F9-AF65-E103-8C96-E03147254996.mp3 | /var/app/video_pre_processor/assets/vidbot/_files/audio/RF4_Country_Jazz.mp3 | /var/www/html/clients/19884/audio/77DB37F9-AF65-E103-8C96-E03147254996.wav
21:37:13 - AUDIO PROCESS RETURN VALUE: - 1
21:37:13 - update message_remote_queue set video_process_start = '2024-06-24 21:37:13' where queue_id = 306763
21:37:13 - CLIENT INFO DATA 
{"client_id":"19884","client_fk":"0256EE42-99B2-4314-41B8-8073B80A46F7","client_acc_id":"3","client_name":"Chapman Ford Lincoln Mercury Mazda","client_desc":"Chapman Ford Lincoln Mercury Mazda","client_color":"","client_player_color":"","client_textcolor":"","client_tts_text":"","client_tts_options":"","client_inactive":"0","client_createdate":"2024-03-29 10:59:34","client_enddate":"","client_update":"2024-04-24 11:35:27","client_email_forward":"","client_dealer_id":"2154832","client_franchise_number":"","client_salesperson_name":"","client_address":"","client_city":"","client_state":"","client_zip":"","client_phone":"","client_url":"","client_fb_id":"","client_km":"0","client_special_price":"0","client_demo":"0","client_utube_flag":"1","client_cvo":"0","client_tts":"1","client_live_uv":"1","client_live_overlay":"2","client_av":"1","client_gv":"0","client_af":"0","client_video_email":"0","client_carfax":"0","client_intro":"0","client_outro":"0","client_slider":"1","client_music_id":"36","client_ei":"0","client_tts_vm":"2","client_hvo":"1","client_mobile":"1","client_portal":"0","client_instavid":"0","client_new_stock_video":"0","client_vidmagnet":"1","client_auto_play":"1","client_cpo":"1","client_vid_stab":"0","client_vp":"0","client_xl":"0","client_carstory":"0","client_360_player":"0","client_ece":"0","client_capture_video":"0","client_new_cvo":"0","client_pip":"1","client_account_id":"","client_crm_email":"","client_crm_dealer_id":"","client_crm_dealer_key":"","client_archive":"0","client_damage_photo":"0","client_package":"3","client_video_size":"HDLARGE","client_video_style":"FULL","client_lat_lng":"","client_comments":"","SHOW_CARSTORY":"0"}
21:37:13 180 - ShellApp::DownloadExternalFile - Array
(
    [url] => http://gcsimages.storage.googleapis.com/clients/19884/library/map.jpg
    [content_type] => application/xml; charset=UTF-8
    [http_code] => 403
    [header_size] => 410
    [request_size] => 226
    [filetime] => -1
    [ssl_verify_result] => 0
    [redirect_count] => 0
    [total_time] => 0.084704
    [namelookup_time] => 0.004206
    [connect_time] => 0.026117
    [pretransfer_time] => 0.026223
    [size_upload] => 0
    [size_download] => 298
    [speed_download] => 3518
    [speed_upload] => 0
    [download_content_length] => 298
    [upload_content_length] => 0
    [starttransfer_time] => 0.084665
    [redirect_time] => 0
    [redirect_url] => 
    [primary_ip] => 142.250.191.219
    [certinfo] => Array
        (
        )

    [primary_port] => 80
    [local_ip] => 209.59.156.167
    [local_port] => 60876
)

21:37:13 - File Download Failed http://gcsimages.storage.googleapis.com/clients/19884/library/map.jpg - /var/www/html/clients/19884/library/map.jpg
21:37:13 - ERROR:: Invalid Dealer Address - , ,   
21:37:13 - Checking CUSTOM_INTRO
21:37:13 - Checking CUSTOM_OUTRO
21:37:13 - ================CREATE VIDEO START =========== 

21:37:13 - ================VIDEO JSON GEN START ==============
21:37:13 - Video Size 360
21:37:13 - ===========Video Theme font ================Dinot
21:37:13 - ==========Video fk : ==============77DB37F9-AF65-E103-8C96-E03147254996
21:37:13 - ==============AUDIO VIDEO CONFIG : =========={"BG_MUSIC":"RF4_Country_Jazz","THEME_BG_COLOR":"ffffff","THEME_ACCENTS_COLOR":"047ec1","THEME_FONT_COLOR":"000000","THEME_FONT":"Dinot","THEME_STYLE":"Ren","BG_VOL_LEVEL":"0.25","AUDIO_VO":"VO","VIDEO_SIZE":"VIDEO_LARGE","CUSTOM_INTRO":"","CUSTOM_OUTRO":"","THEME_KEY":"3_0_Auto_Default_0_ALL","THEME_RANK":"2","THEME_CONFIG":"RESELLER_CONFIG","DISABLE_PRICE":"YES","DISPLAY_INFO":"NO","DISPLAY_MAP":"NO","DISPLAY_MILEAGE":"NO","DISPLAY_OPTIONS":"NO","DISPLAY_PRICE":"NO","OLD_BG_STYLE":"0"}
21:37:13 - CLIENT FKEY :  0256EE42-99B2-4314-41B8-8073B80A46F7  VIDEO FKEY :  77DB37F9-AF65-E103-8C96-E03147254996  VEHICLE FKEY :   
21:37:13 - INFO:: Video Type:SS Video Size:360 
21:37:13 - ==================ClipsGen START  =====================

21:37:13 - Return from CheckProfileVal function::0 - AUDIO_VO - NO_VO
21:37:13 - Return from CheckProfileVal function::0 - AUDIO_VO - NO_VO
21:37:13 - Return from CheckProfileVal function::0 - AUDIO_VO - LIVE_VO
21:37:13 - Return from CheckProfileVal function::0 - AUDIO_VO - LIVE_VO
21:37:13 - Return from CheckProfileVal function::0 - DISPLAY_OPTIONS - NO
21:37:13 - Return from CheckProfileVal function::1 - DISPLAY_OPTIONS - NO
21:37:13 - Return from CheckProfileVal function::0 - DISPLAY_PRICE - NO
21:37:13 - Return from CheckProfileVal function::1 - DISPLAY_PRICE - NO
21:37:13 - Return from CheckProfileVal function::0 - DISPLAY_MILEAGE - NO
21:37:13 - Return from CheckProfileVal function::1 - DISPLAY_MILEAGE - NO
21:37:13 - Return from CheckProfileVal function::0 - DISPLAY_INFO - NO
21:37:13 - Return from CheckProfileVal function::1 - DISPLAY_INFO - NO
21:37:13 - Return from CheckProfileVal function::0 - DISPLAY_TITLE_WSNAME - NO
21:37:13 - Return from CheckProfileVal function::0 - DISPLAY_TITLE_WSNAME - NO
21:37:13 - Return from CheckProfileVal function::0 - DISPLAY_ALL_OVERLAYS - NO
21:37:13 - Return from CheckProfileVal function::0 - DISPLAY_ALL_OVERLAYS - NO
21:37:13 - Return from CheckProfileVal function::0 - DISPLAY_MAP - NO
21:37:13 - Return from CheckProfileVal function::1 - DISPLAY_MAP - NO
21:37:13 - =========THEME STYLE-FONT :Ren - Din  ============
21:37:13 - /var/app/video_pre_processor/assets/vidbot/_files/audio/RF4_Country_Jazz.mp3 PlayTime:320.5
21:37:13 - Return from CheckProfileVal function::0 - BG_MUSIC_OVER_ALL_CLIPS - YES
21:37:13 - Return from CheckProfileVal function::0 - BG_MUSIC_OVER_ALL_CLIPS - YES
21:37:13 - AUDIO TIMER: 
{"FALLBACK_SCRIPT":0,"ALL_OPTIONS":{"* General Options Intro":10.69,"Rain Sensing Wipers":13.04,"Turbocharged":14.629999999999999,"Panoramic Roof":15.809999999999999,"Heated Mirrors":17.22,"All Wheel Drive":18.24,"Aluminum Wheels":19.419999999999998,"Rear Spoiler":20.619999999999997,"Remote Engine Start":21.72,"Power Liftgate":23.16,"Brake Assist":24.36},"OPTIONS":12.69,"OPTIONS_AUD_LENGTH":14.79,"ENDFILE":25.48}
21:37:13 - ===================ClipsGen END  ======================== 

21:37:13 - INFO:: VIDEO JSON : "77DB37F9-AF65-E103-8C96-E03147254996.json"
21:37:13 - node /var/app/Vidbot-V2/dist/vidbot.js --input /var/www/html/clients/19884/video/77DB37F9-AF65-E103-8C96-E03147254996.json --log debug > /var/www/html/clients/19884/video/77DB37F9-AF65-E103-8C96-E03147254996.log