21:28:46 - KM Check : 1473 | 0
21:28:46 - /var/app/video_pre_processor/assets/hvo/miles_fe_audio_file_43.wav PlayTime:2.87
21:28:46 - Curl Response - {"error":"Vehicle options not found for vehicle key[B56ABC47-0D06-CDAC-903A-1ADCD3E9F101]"}
21:28:46 - ============={"error":"Vehicle options not found for vehicle key[B56ABC47-0D06-CDAC-903A-1ADCD3E9F101]"}===============
21:28:46 - Skipping Duplicate Option Traction Control
21:28:46 - Skipping Duplicate Option Keyless Entry
21:28:46 - Skipping Duplicate Option Lane Departure Warning
21:28:46 - Skipping Duplicate Option Keyless Start
21:28:46 - Skipping Duplicate Option Power Door Locks
21:28:46 - Skipping Duplicate Option Trip Computer
21:28:46 - Skipping Duplicate Option Power Door Locks
21:28:46 - Skipping Duplicate Option Power Door Locks
21:28:46 - Skipping Duplicate Option Air Suspension
21:28:46 - Skipping Duplicate Option A/C
21:28:46 - Skipping Duplicate Option Air Suspension
21:28:46 - /var/app/video_pre_processor/assets/hvo/options_fe_audio_file_55.wav PlayTime:2.35
21:28:46 - /var/app/video_pre_processor/assets/hvo/options_fe_audio_file_337.wav PlayTime:1.28
21:28:46 - /var/app/video_pre_processor/assets/hvo/options_fe_audio_file_242.wav PlayTime:1.33
21:28:46 - /var/app/video_pre_processor/assets/hvo/options_fe_audio_file_296.wav PlayTime:2.17
21:28:46 - /var/app/video_pre_processor/assets/hvo/options_fe_audio_file_18.wav PlayTime:1.31
21:28:46 - /var/app/video_pre_processor/assets/hvo/options_fe_audio_file_17.wav PlayTime:1.25
21:28:46 - /var/app/video_pre_processor/assets/hvo/options_fe_audio_file_272.wav PlayTime:1.44
21:28:46 - /var/app/video_pre_processor/assets/hvo/options_fe_audio_file_202.wav PlayTime:1.23
21:28:46 - /var/app/video_pre_processor/assets/hvo/options_fe_audio_file_219.wav PlayTime:1.59
21:28:46 - /var/app/video_pre_processor/assets/hvo/options_fe_audio_file_1348.wav PlayTime:1.44
21:28:46 - /var/app/video_pre_processor/assets/hvo/options_fe_audio_file_1349.wav PlayTime:1.56
21:28:46 - ======= ALL Options  ========== 
null
21:28:46 - /var/www/html/clients/107854/audio/B56ABC47-0D06-CDAC-903A-1ADCD3E9F101_option.wav
21:28:46 - /usr/bin/sox /var/app/video_pre_processor/assets/hvo/options_fe_audio_file_55.wav /var/app/video_pre_processor/assets/hvo/options_fe_audio_file_337.wav /var/app/video_pre_processor/assets/hvo/options_fe_audio_file_242.wav /var/app/video_pre_processor/assets/hvo/options_fe_audio_file_296.wav /var/app/video_pre_processor/assets/hvo/options_fe_audio_file_18.wav /var/app/video_pre_processor/assets/hvo/options_fe_audio_file_17.wav /var/app/video_pre_processor/assets/hvo/options_fe_audio_file_272.wav /var/app/video_pre_processor/assets/hvo/options_fe_audio_file_202.wav /var/app/video_pre_processor/assets/hvo/options_fe_audio_file_219.wav /var/app/video_pre_processor/assets/hvo/options_fe_audio_file_1348.wav /var/app/video_pre_processor/assets/hvo/options_fe_audio_file_1349.wav /var/www/html/clients/107854/audio/B56ABC47-0D06-CDAC-903A-1ADCD3E9F101_option.wav
21:28:46 - /var/www/html/clients/107854/audio/B56ABC47-0D06-CDAC-903A-1ADCD3E9F101_option.wav PlayTime:16.95
21:28:46 - Skipping VTT for CARFAX - carfaxFile
21:28:46 - /var/app/video_pre_processor/assets/hvo/emotional_fe_audio_file_14.wav PlayTime:8.1
21:28:46 - /usr/bin/sox /var/app/video_pre_processor/assets/hvo/ie_fe_audio_file_23.wav /var/app/video_pre_processor/assets/hvo/year_fe_audio_file_58.wav /var/app/video_pre_processor/assets/hvo/model_name_fe_audio_file_837.wav /var/app/video_pre_processor/assets/hvo/model_fe_audio_file_837.wav /var/app/video_pre_processor/assets/hvo/price_fe_audio_file_26.wav /var/app/video_pre_processor/assets/hvo/miles_fe_audio_file_43.wav /var/www/html/clients/107854/audio/B56ABC47-0D06-CDAC-903A-1ADCD3E9F101_option.wav /var/app/video_pre_processor/assets/hvo/emotional_fe_audio_file_14.wav /var/www/html/clients/107854/audio/B56ABC47-0D06-CDAC-903A-1ADCD3E9F101_temp1.wav
21:28:46 - Return from CheckProfileVal function::0 - REPLACE_FULL_AUDIO - 
21:28:46 - Return from CheckProfileVal function::0 - REPLACE_FULL_AUDIO_NEW - 
21:28:46 - ========REPALCE AUDIO TRACK LISTING TYPE used \ n USED VALUE : 0 NEW AUDIO VALUE : { 0} ==============

21:28:46 - Video Length for audio merge: 0
21:28:46 - /root/bin/ffmpeg  -i /var/www/html/clients/107854/audio/B56ABC47-0D06-CDAC-903A-1ADCD3E9F101.wav -f mp3 -ar 44100 -ab 320 -ac 2 -y /var/www/html/clients/107854/audio/B56ABC47-0D06-CDAC-903A-1ADCD3E9F101.mp3
ffmpeg version N-109053-g9b13078c6a Copyright (c) 2000-2022 the FFmpeg developers
  built with gcc 5.4.0 (GCC)
  configuration: --prefix=/root/ffmpeg_build --pkg-config-flags=--static --extra-cflags=-I/root/ffmpeg_build/include --extra-ldflags=-L/root/ffmpeg_build/lib --extra-libs=-lpthread --extra-libs=-lm --bindir=/root/bin --enable-gpl --enable-libfdk_aac --enable-libfreetype --enable-libmp3lame --enable-libopus --enable-libvpx --enable-libx264 --enable-openssl --enable-libx265 --enable-nonfree --enable-libvidstab
  libavutil      57. 42.100 / 57. 42.100
  libavcodec     59. 52.101 / 59. 52.101
  libavformat    59. 34.101 / 59. 34.101
  libavdevice    59.  8.101 / 59.  8.101
  libavfilter     8. 50.100 /  8. 50.100
  libswscale      6.  8.112 /  6.  8.112
  libswresample   4.  9.100 /  4.  9.100
  libpostproc    56.  7.100 / 56.  7.100
Guessed Channel Layout for Input Stream #0.0 : stereo
Input #0, wav, from '/var/www/html/clients/107854/audio/B56ABC47-0D06-CDAC-903A-1ADCD3E9F101.wav':
  Duration: 00:01:05.41, bitrate: 1411 kb/s
  Stream #0:0: Audio: pcm_s16le ([1][0][0][0] / 0x0001), 44100 Hz, 2 channels, s16, 1411 kb/s
Stream mapping:
  Stream #0:0 -> #0:0 (pcm_s16le (native) -> mp3 (libmp3lame))
Press [q] to stop, [?] for help
[libmp3lame @ 0x3802480] Bitrate 320 is extremely low, maybe you mean 320k
The bitrate parameter is set too low. It takes bits/s as argument, not kbits/s
Output #0, mp3, to '/var/www/html/clients/107854/audio/B56ABC47-0D06-CDAC-903A-1ADCD3E9F101.mp3':
  Metadata:
    TSSE            : Lavf59.34.101
  Stream #0:0: Audio: mp3, 44100 Hz, stereo, s16p, 0 kb/s
    Metadata:
      encoder         : Lavc59.52.101 libmp3lame
size=       0kB time=-577014:32:22.77 bitrate=  -0.0kbits/s speed=N/A    
size=     104kB time=00:00:06.63 bitrate= 128.3kbits/s speed=13.3x    
size=     204kB time=00:00:13.01 bitrate= 128.1kbits/s speed=  13x    
size=     256kB time=00:00:19.51 bitrate= 107.5kbits/s speed=  13x    
size=     256kB time=00:00:26.07 bitrate=  80.4kbits/s speed=  13x    
size=     256kB time=00:00:31.84 bitrate=  65.9kbits/s speed=12.7x    
size=     512kB time=00:00:38.06 bitrate= 110.2kbits/s speed=12.7x    
size=     512kB time=00:00:44.09 bitrate=  95.1kbits/s speed=12.6x    
size=     768kB time=00:00:50.73 bitrate= 124.0kbits/s speed=12.7x    
size=     768kB time=00:00:57.81 bitrate= 108.8kbits/s speed=12.8x    
size=     768kB time=00:01:04.81 bitrate=  97.1kbits/s speed=12.9x    
size=    1023kB time=00:01:05.38 bitrate= 128.1kbits/s speed=12.9x    
video:0kB audio:1022kB subtitle:0kB other streams:0kB global headers:0kB muxing overhead: 0.024165%
21:28:51 - /var/app/video_pre_processor/assets/vidbot/_files/audio/HipHop.mp3 PlayTime:0
21:28:51 - Using bgmusic.mp3 - /var/app/video_pre_processor/assets/vidbot/_files/audio/HipHop.mp3
21:28:51 - BG MUSIC FILE /var/app/video_pre_processor/assets/vidbot/_files/audio/bgmusic.mp3 

21:28:51 - BG AUDIO CLIENT OVELAY VALUE : 0 

21:28:51 - /var/www/html/clients/107854/audio/B56ABC47-0D06-CDAC-903A-1ADCD3E9F101.wav PlayTime:65.41
21:28:51 - VParent - VOLEN:67.41 | /var/www/html/clients/107854/audio/B56ABC47-0D06-CDAC-903A-1ADCD3E9F101.mp3 | /var/app/video_pre_processor/assets/vidbot/_files/audio/bgmusic.mp3 | /var/www/html/clients/107854/audio/B56ABC47-0D06-CDAC-903A-1ADCD3E9F101.wav
21:28:51 - AUDIO PROCESS RETURN VALUE: - 1
21:28:51 - update message_remote_queue set video_process_start = '2024-06-24 21:28:51' where queue_id = 306745
21:28:51 - CLIENT INFO DATA 
{"client_id":"107854","client_fk":"5563EE45-E2F4-381F-E663-3A0CB79A3E7B","client_rftp_id":"2241581","client_ilot_id":"3128305","client_cc_id":"147814","client_name":"Jaguar Land Rover Jacksonville","client_active":"1","client_regen":"0","client_desc":"","client_createdate":"2019-03-14 22:22:41","client_enddate":"","client_update":"2019-06-18 22:55:10","client_demo":"0","client_email_forward":"","client_salesperson_name":"","client_address":"11217 Atlantic Blvd","client_city":"Jacksonville","client_state":"FL","client_zip":"32225","client_phone":"(407) 680-4326","client_url":"www.jlrjax.com","client_yt_uname":"","client_yt_pwd":"","client_md5":"0314443bafa628a683ff50108f5f106d","client_yt_verified":"0","client_yt_error":"0","client_video_size":"HDLARGE","client_tts_vm":"2","client_video_style":"RANDOM","client_mobile":"1","client_lat_lng":"","client_acc_id":"100000","SHOW_CARSTORY":"0"}
21:28:52 - File Downloaded http://gcsimages.storage.googleapis.com/clients/107854/library/map.jpg - /var/www/html/clients/107854/library/map.jpg - FileSize:76.12 K
21:28:52 - Map Exists: /var/www/html/clients/107854/library/map.jpg
21:28:52 - Checking CUSTOM_INTRO
21:28:52 - Checking CUSTOM_OUTRO
21:28:52 - ================CREATE VIDEO START =========== 

21:28:52 - ================VIDEO JSON GEN START ==============
21:28:52 - Video Size 360
21:28:52 - ===========Video Theme font ================Dinot
21:28:52 - ==========Video fk : ==============B56ABC47-0D06-CDAC-903A-1ADCD3E9F101
21:28:52 - ==============AUDIO VIDEO CONFIG : =========={"BG_MUSIC":"HipHop","THEME_BG_COLOR":"ffffff","THEME_ACCENTS_COLOR":"532380","THEME_FONT_COLOR":"444444","THEME_FONT":"Dinot","THEME_STYLE":"Ren","BG_VOL_LEVEL":"0.25","AUDIO_VO":"","VIDEO_SIZE":"VIDEO_LARGE","CUSTOM_INTRO":"","CUSTOM_OUTRO":"","THEME_KEY":"100000_0_Auto_Default_0_ALL","THEME_RANK":"2","THEME_CONFIG":"RESELLER_CONFIG","OLD_BG_STYLE":"0"}
21:28:52 - CLIENT FKEY :  5563EE45-E2F4-381F-E663-3A0CB79A3E7B  VIDEO FKEY :  B56ABC47-0D06-CDAC-903A-1ADCD3E9F101  VEHICLE FKEY :   
21:28:52 - INFO:: Video Type:SS Video Size:360 
21:28:52 - Return from CheckProfileVal function::0 - DISPLAY_MILEAGE - NO
21:28:52 - Return from CheckProfileVal function::0 - DISPLAY_MILEAGE - NO
21:28:52 - Return from CheckProfileVal function::0 - DISPLAY_PRICE - NO
21:28:52 - Return from CheckProfileVal function::0 - DISPLAY_PRICE - NO
21:28:52 - ==================ClipsGen START  =====================

21:28:52 - Return from CheckProfileVal function::0 - AUDIO_VO - NO_VO
21:28:52 - Return from CheckProfileVal function::0 - AUDIO_VO - NO_VO
21:28:52 - Return from CheckProfileVal function::0 - AUDIO_VO - LIVE_VO
21:28:52 - Return from CheckProfileVal function::0 - AUDIO_VO - LIVE_VO
21:28:52 - Return from CheckProfileVal function::0 - DISPLAY_OPTIONS - NO
21:28:52 - Return from CheckProfileVal function::0 - DISPLAY_OPTIONS - NO
21:28:52 - Return from CheckProfileVal function::0 - DISPLAY_PRICE - NO
21:28:52 - Return from CheckProfileVal function::0 - DISPLAY_PRICE - NO
21:28:52 - Return from CheckProfileVal function::0 - DISABLE_PRICE - YES
21:28:52 - Return from CheckProfileVal function::0 - DISPLAY_MILEAGE - NO
21:28:52 - Return from CheckProfileVal function::0 - DISPLAY_MILEAGE - NO
21:28:52 - Return from CheckProfileVal function::0 - DISPLAY_INFO - NO
21:28:52 - Return from CheckProfileVal function::0 - DISPLAY_INFO - NO
21:28:52 - Return from CheckProfileVal function::0 - DISPLAY_TITLE_WSNAME - NO
21:28:52 - Return from CheckProfileVal function::0 - DISPLAY_TITLE_WSNAME - NO
21:28:52 - Return from CheckProfileVal function::0 - DISPLAY_ALL_OVERLAYS - NO
21:28:52 - Return from CheckProfileVal function::0 - DISPLAY_ALL_OVERLAYS - NO
21:28:52 - Return from CheckProfileVal function::0 - DISPLAY_MAP - NO
21:28:52 - Return from CheckProfileVal function::0 - DISPLAY_MAP - NO
21:28:52 297 - ShellApp::ResizeImage - /var/www/html/clients/107854/library/map.jpg - /var/www/html/clients/107854/library/width_map_360.jpg - 640
21:28:52 - Check Height 409.6  0 - Image Type: 2
21:28:52 276 - ShellApp::CropJPEGImage - 640/325 - 409- 42 

21:28:52 - MAP : /var/www/html/clients/107854/library/map_360.jpg :  FILE SIZE : 168759
21:28:52 - =========THEME STYLE-FONT :Ren - Din  ============
21:28:52 - /usr/bin/sox  /var/app/video_pre_processor/assets/music/silence_3.wav /var/www/html/clients/107854/audio/B56ABC47-0D06-CDAC-903A-1ADCD3E9F101.wav /var/www/html/clients/107854/audio/B56ABC47-0D06-CDAC-903A-1ADCD3E9F101_info_audio.wav
21:28:52 - /var/app/video_pre_processor/assets/vidbot/_files/audio/bgmusic.mp3 PlayTime:957.94
21:28:52 - Return from CheckProfileVal function::0 - BG_MUSIC_OVER_ALL_CLIPS - YES
21:28:52 - Return from CheckProfileVal function::0 - BG_MUSIC_OVER_ALL_CLIPS - YES
21:28:52 - AUDIO TIMER: 
{"INTRO":0,"YEAR":2.35,"MODEL":4.28,"HIGH":5.7700000000000005,"PRICE":34.53,"MILE":37.480000000000004,"ALL_OPTIONS":{"* General Options Intro":40.35,"Back-Up Camera":42.7,"Power Passenger Seat":43.980000000000004,"Steering wheel audio controls":45.31,"Traction Control":47.480000000000004,"Stability Control":48.790000000000006,"Remote Engine Start":50.040000000000006,"Keyless Entry":51.480000000000004,"Navigation System":52.71,"Lane Departure Warning":54.300000000000004,"LED Headlights":55.74},"OPTIONS":42.35,"OPTIONS_AUD_LENGTH":16.95,"ENDFILE":57.300000000000004}
21:28:52 - ===================ClipsGen END  ======================== 

21:28:52 - INFO:: VIDEO JSON : "B56ABC47-0D06-CDAC-903A-1ADCD3E9F101.json"
21:28:52 - node /var/app/Vidbot-V2/dist/vidbot.js --input /var/www/html/clients/107854/video/B56ABC47-0D06-CDAC-903A-1ADCD3E9F101.json --log debug > /var/www/html/clients/107854/video/B56ABC47-0D06-CDAC-903A-1ADCD3E9F101.log
21:36:12 - Generated Video File./var/www/html/clients/107854/video/B56ABC47-0D06-CDAC-903A-1ADCD3E9F101.mp4
21:36:12 - INFO:: Generated Video File./var/www/html/clients/107854/video/B56ABC47-0D06-CDAC-903A-1ADCD3E9F101.mp4
21:36:12 - INFO:: Sprite & Bookmark Option(s) not enabled
21:36:12 - ================VIDEO JSON GEN END RETURN VALUE : 1 ============== 
21:36:12 - ================CREATE VIDEO END =========== 
 ERROR : { 0}
21:36:12 - Start Time:0
21:36:12 - 0##2.35##Stop by and take a look at
21:36:12 - 2.35##4.28##The 2023
21:36:12 - 4.28##5.77##Defender
21:36:12 - 5.77##34.53##If you are looking for a serious all around utility vehicle with reliability and style then the LandRover Defender is for you.  This is the iconoclastic exploration vehicle.  The full time four wheel drive off road British made Defender is one vehicle that will get you in and out of some of the trickiest spots nature has to offer.  The Defender has outstanding 4 wheel agility and improved riding comfort too.
21:36:12 - 34.53##37.48##and it is priced below $90000
21:36:12 - 37.48##40.35##This Vehicle has less than 2000 miles
21:36:12 - Replacing VTT String * General Options Intro to Here are some of this Vehicle's great options
21:36:12 - 40.35##42.7##Here are some of this Vehicle's great options
21:36:12 - 42.7##43.98##Back-Up Camera
21:36:12 - 43.98##45.31##Power Passenger Seat
21:36:12 - 45.31##47.48##Steering wheel audio controls
21:36:12 - 47.48##48.79##Traction Control
21:36:12 - 48.79##50.04##Stability Control
21:36:12 - 50.04##51.48##Remote Engine Start
21:36:12 - 51.48##52.71##Keyless Entry
21:36:12 - 52.71##54.3##Navigation System
21:36:12 - 54.3##55.74##Lane Departure Warning
21:36:12 - 55.74##57.3##LED Headlights
21:36:12 - 57.3##65.4##If affordable style and reliability are what you're looking for this vehicle couldn't be more perfect.  Drive it today!
21:36:13 - Curl Response - {"error":"Video key not found [B56ABC47-0D06-CDAC-903A-1ADCD3E9F101]"}
21:36:13 - Contents - /postVTTString/ -  - 
0##2.35##Stop by and take a look at|||2.35##4.28##The 2023|||4.28##5.77##Defender|||5.77##34.53##If you are looking for a serious all around utility vehicle with reliability and style then the LandRover Defender is for you.  This is the iconoclastic exploration vehicle.  The full time four wheel drive off road British made Defender is one vehicle that will get you in and out of some of the trickiest spots nature has to offer.  The Defender has outstanding 4 wheel agility and improved riding comfort too.|||34.53##37.48##and it is priced below $90000|||37.48##40.35##This Vehicle has less than 2000 miles|||40.35##42.7##Here are some of this Vehicle's great options|||42.7##43.98##Back-Up Camera|||43.98##45.31##Power Passenger Seat|||45.31##47.48##Steering wheel audio controls|||47.48##48.79##Traction Control|||48.79##50.04##Stability Control|||50.04##51.48##Remote Engine Start|||51.48##52.71##Keyless Entry|||52.71##54.3##Navigation System|||54.3##55.74##Lane Departure Warning|||55.74##57.3##LED Headlights|||57.3##65.4##If affordable style and reliability are what you're looking for this vehicle couldn't be more perfect.  Drive it today!
21:36:13 - VIDEO JSON GEN RETURN VALUE: - 0
21:36:13 - update message_remote_queue set error=0, video = 1, error_message = concat( "", error_message ), process_start = '2024-06-24 21:28:46', audio_process_start = '2024-06-24 21:28:46', audio_process_end = '2024-06-24 21:28:51', video_process_start ='2024-06-24 21:28:51', video_process_end='2024-06-24 21:36:13' where queue_id = 306745
21:36:13 - ==43 - 1 Elapsed Time 447.32 ==

21:36:13 - update queue_status set stat_last_update=NOW(), type_cnt = 43, type_loop_cnt = 478 where type_val = 'V10'
21:36:13 - Curl Response - {"code":200,"status":"Success:PostServerProcessDetails Posted For IP [209.59.156.167] and Process [V10]"}
21:36:13 - Contents - /postServerProcessDetails/ - Success:PostServerProcessDetails Posted For IP [209.59.156.167] and Process [V10] - 200
21:36:13 - update queue_status set stat_last_update=NOW(), type_cnt = 43, type_loop_cnt = 478 where type_val = 'V10'
21:36:13 - Curl Response - {"code":200,"status":"Success:PostServerProcessDetails Posted For IP [209.59.156.167] and Process [V10]"}
21:36:13 - Contents - /postServerProcessDetails/ - Success:PostServerProcessDetails Posted For IP [209.59.156.167] and Process [V10] - 200
21:36:13 - ========== 43  - 252 mins 351.72186046512 Video Process / Start:2024-06-24 15:33:02 / Mod:9/16======
21:36:14 - Fetching  Video Jobs Mod Val : 9 Mod Limit : 16 Queue ID : 0 

21:36:14 - ========select * from message_remote_queue, hvo_data where queue_id%16 = 9 and image = 1 and video = 0 and error = 0 and hvo_queue_id = queue_id   order by high_priority_row desc, queue_id asc limit 1==================count =1
21:36:14 - Processing Auto VideoFKEY:AB2D70D3-850A-D9B2-7BD0-D6C1D76FA5AA - QueueID:306761 
21:36:14 - CLIENT INFO  CLIENT_FK  : 0256EE42-99B2-4314-41B8-8073B80A46F7 ,CLIENT_INFO :{"client_id":"19884","client_fk":"0256EE42-99B2-4314-41B8-8073B80A46F7","client_acc_id":"3","client_name":"Chapman Ford Lincoln Mercury Mazda","client_desc":"Chapman Ford Lincoln Mercury Mazda","client_color":"","client_player_color":"","client_textcolor":"","client_tts_text":"","client_tts_options":"","client_inactive":"0","client_createdate":"2024-03-29 10:59:34","client_enddate":"","client_update":"2024-04-24 11:35:27","client_email_forward":"","client_dealer_id":"2154832","client_franchise_number":"","client_salesperson_name":"","client_address":"","client_city":"","client_state":"","client_zip":"","client_phone":"","client_url":"","client_fb_id":"","client_km":"0","client_special_price":"0","client_demo":"0","client_utube_flag":"1","client_cvo":"0","client_tts":"1","client_live_uv":"1","client_live_overlay":"2","client_av":"1","client_gv":"0","client_af":"0","client_video_email":"0","client_carfax":"0","client_intro":"0","client_outro":"0","client_slider":"1","client_music_id":"36","client_ei":"0","client_tts_vm":"2","client_hvo":"1","client_mobile":"1","client_portal":"0","client_instavid":"0","client_new_stock_video":"0","client_vidmagnet":"1","client_auto_play":"1","client_cpo":"1","client_vid_stab":"0","client_vp":"0","client_xl":"0","client_carstory":"0","client_360_player":"0","client_ece":"0","client_capture_video":"0","client_new_cvo":"0","client_pip":"1","client_account_id":"","client_crm_email":"","client_crm_dealer_id":"","client_crm_dealer_key":"","client_archive":"0","client_damage_photo":"0","client_package":"3","client_video_size":"HDLARGE","client_video_style":"FULL","client_lat_lng":"","client_comments":"","SHOW_CARSTORY":"0"}
21:36:14 - Rest Call: /client/videoDetails/0256EE42-99B2-4314-41B8-8073B80A46F7?video_key=AB2D70D3-850A-D9B2-7BD0-D6C1D76FA5AA
21:36:14 - Curl Response - {"video_id":"48826971","video_fk":"AB2D70D3-850A-D9B2-7BD0-D6C1D76FA5AA","vehicle_id":"43067304","video_client_id":"19884","video_script":"Pick up this Soul Red Crystal 2024 Mazda CX-90, available today. Featuring Automatic transmission, it has 0 miles. This could be the one you've been searching for. Contact us and get behind the wheel today!","video_tts_script":"Pick up this Soul Red Crystal 2024 Mazda CX-90, available today. Featuring Automatic transmission, it has 0 miles. This could be the one you've been searching for. Contact us and get behind the wheel today!","video_flv":"","video_create_time":"2024-05-14 18:03:12","video_update_time":"2024-06-24 21:33:04","audio_length":"0","video_options":"WIRELESS CHARGING PAD,2ND-ROW CAPTAIN'S CHAIRS  -inc: Reduces seating capacity from 8-passengers to 7-passengers  armrest and center walk through,SOUL RED CRYSTAL METALLIC PAINT CHARGE,SOUL RED CRYSTAL,GREIGE  LEATHER SEAT TRIM,Turbocharged,All Wheel Drive,Power Steering,ABS,4-Wheel Disc Brakes,Brake Assist,Brake Actuated Limited Slip Differential,Lithium Ion Traction Battery,Aluminum Wheels,Tires - Front Performance,Tires - Rear Performance,Temporary Spare Tire,Sun\/Moonroof,Generic Sun\/Moonroof,Heated Mirrors,Power Mirror(s),Integrated Turn Signal Mirrors,Rear Defrost,Privacy Glass,Intermittent Wipers,Variable Speed Intermittent Wipers,Rain Sensing Wipers,Rear Spoiler,Remote Trunk Release,Power Liftgate,Power Door Locks,Daytime Running Lights,Automatic Headlights,Headlights-Auto-Leveling,LED Headlights,Automatic Highbeams,AM\/FM Stereo,MP3 Player,Bluetooth Connection,Auxiliary Audio Input,HD Radio,Smart Device Integration,Steering Wheel Audio Controls,Telematics,Remote Engine Start,Requires Subscription,Power Driver Seat,Power Passenger Seat,Bucket Seats,Heated Front Seat(s)","video_custom_flag":"0","video_title":"2024 MAZDA CX-90 Egg Harbor, NJ","video_local_title":"2024 MAZDA CX-90 Egg Harbor, NJ","video_frames":"5","video_image_url":"\/avavids\/1\/clients\/19884\/images\/AB2D70D3-850A-D9B2-7BD0-D6C1D76FA5AA_","video_pin_id":"0","video_tts_flag":"1","video_hvo_flag":"0","video_share":"1","video_default_flag":"1","video_imgsrc_urls":"https:\/\/content.homenetiol.com\/stock_images\/8\/cc_2024MAS11_01_640\/cc_2024MAS110018_01_640_46V.jpg,https:\/\/content.homenetiol.com\/stock_images\/5\/2024MAS11_640\/2024MAS110015_640_01.jpg,https:\/\/content.homenetiol.com\/stock_images\/5\/2024MAS11_640\/2024MAS110016_640_02.jpg,https:\/\/content.homenetiol.com\/stock_images\/5\/2024MAS11_640\/2024MAS110017_640_03.jpg,https:\/\/content.homenetiol.com\/stock_images\/5\/2024MAS11_640\/2024MAS110024_640_12.jpg","video_thumbnail_url":"","video_rendering_flag":"0","video_error_rendering":"","video_view_cnt":"0","video_delete_flag":"0","video_delete_time":"","video_batch_proc":"0","video_meta_data":"","video_custom_default":"0","video_external_flv":"https:\/\/gcsimages.s3.us-west-001.backblazeb2.com\/clients\/19884\/video\/AB2D70D3-850A-D9B2-7BD0-D6C1D76FA5AA.mp4","video_external_wflv":"","video_external_iflv":"","video_custom_uploaded":"0","vehicle_client_id":"19884","vehicle_fkey":"2B566BDA-4BF3-F40C-0026-CD1A003331FE","vehicle_uid":"1546545257","vehicle_vin":"JM3KKBHD8R1175584","vehicle_stock":"M90X24054","vehicle_year":"2024","vehicle_make":"Mazda","vehicle_model":"CX-90","vehicle_trim":"3.3 Turbo Preferred","vehicle_price":"43195","vehicle_mileage":"0","vehicle_int_color":"Greige","vehicle_ext_color":"Soul Red Crystal","vehicle_body_type":"Sport Utility","vehicle_listing_type":"New","vehicle_citympg":"","vehicle_hwympg":"","vehicle_combmpg":"","vehicle_cylinders":"6","vehicle_engine_size":"3.3","vehicle_trans":"Automatic","vehicle_drivetrain":"AWD","vehicle_passengers":"0","vehicle_doors":"4","vehicle_certified":"0","vehicle_special":"0","vehicle_options":"WIRELESS CHARGING PAD,2ND-ROW CAPTAIN'S CHAIRS  -inc: Reduces seating capacity from 8-passengers to 7-passengers  armrest and center walk through,SOUL RED CRYSTAL METALLIC PAINT CHARGE,SOUL RED CRYSTAL,GREIGE  LEATHER SEAT TRIM,Turbocharged,All Wheel Drive,Power Steering,ABS,4-Wheel Disc Brakes,Brake Assist,Brake Actuated Limited Slip Differential,Lithium Ion Traction Battery,Aluminum Wheels,Tires - Front Performance,Tires - Rear Performance,Temporary Spare Tire,Sun\/Moonroof,Generic Sun\/Moonroof,Heated Mirrors,Power Mirror(s),Integrated Turn Signal Mirrors,Rear Defrost,Privacy Glass,Intermittent Wipers,Variable Speed Intermittent Wipers,Rain Sensing Wipers,Rear Spoiler,Remote Trunk Release,Power Liftgate,Power Door Locks,Daytime Running Lights,Automatic Headlights,Headlights-Auto-Leveling,LED Headlights,Automatic Highbeams,AM\/FM Stereo,MP3 Player,Bluetooth Connection,Auxiliary Audio Input,HD Radio,Smart Device Integration,Steering Wheel Audio Controls,Telematics,Remote Engine Start,Requires Subscription,Power Driver Seat,Power Passenger Seat,Bucket Seats,Heated Front Seat(s)","vehicle_desc":"2024 MAZDA CX-90 Egg Harbor, NJStock# M90X24054609-646-2000www.chapmannj.comFor more information on this vehicle and our full inventory, call 609-646-2000.Chapman Ford Lincoln Mercury Mazda6744 Black Horse PikeEgg Harbor, NJ 08234Pick up this Soul Red Crystal 2024 Mazda CX-90, available today. Featuring Automatic transmission, it has 0 miles. This could be the one you've been searching for. Contact us and get behind the wheel today!","vehicle_chrome_style_id":"","vehicle_model_num":"","vehicle_stock_video":"0","vehicle_img_cnt":"5","veh_more_info":"","vehicle_create_date":"2024-05-14 18:03:12","vehicle_update_date":"2024-06-14 22:04:07","vehicle_md5":"eaf837950e5e583066c13db62c4e6b6c","vehicle_status":"U","vehicle_add":"0","vehicle_delete_flag":"0","vehicle_delete_time":""}
21:36:14 - Rest Call: /client/getAudioVideoConfig/0256EE42-99B2-4314-41B8-8073B80A46F7?listing_type=New&video_type=Auto&certified=0&vehicle_make=Mazda
21:36:14 - Curl Response - {"BG_MUSIC":"RF5_Lounge_Jazz","THEME_BG_COLOR":"ffffff","THEME_ACCENTS_COLOR":"047ec1","THEME_FONT_COLOR":"000000","THEME_FONT":"Din","THEME_STYLE":"Ren","BG_VOL_LEVEL":"0.25","AUDIO_VO":"VO","VIDEO_SIZE":"VIDEO_LARGE","CUSTOM_INTRO":"","CUSTOM_OUTRO":"","THEME_KEY":"3_0_Auto_Default_0_ALL","THEME_RANK":"2","THEME_CONFIG":"RESELLER_CONFIG","DISABLE_PRICE":"YES","DISPLAY_INFO":"NO","DISPLAY_MAP":"NO","DISPLAY_MILEAGE":"NO","DISPLAY_OPTIONS":"NO","DISPLAY_PRICE":"NO","OLD_BG_STYLE":"0"}
21:36:14 - Return from CheckProfileVal function::1 - DISABLE_PRICE - YES
21:36:14 - Return from CheckProfileVal function::0 - DISABLE_MILEAGE - YES
21:36:14 - Return from CheckProfileVal function::0 - DISABLE_CARSTORY - YES
21:36:14 - Config Information for AB2D70D3-850A-D9B2-7BD0-D6C1D76FA5AA - Width:640 - CPO:1/0 - CF:0 - CS:0  - Intro:0 - Outro:0 - Ovleray:2 -THEME:3_0_Auto_Default_0_ALL
21:36:14 - https://content.homenetiol.com/stock_images/8/cc_2024MAS11_01_640/cc_2024MAS110018_01_640_46V.jpg /var/www/html/clients/19884/images/AB2D70D3-850A-D9B2-7BD0-D6C1D76FA5AA_1.jpg
21:36:14 - https://content.homenetiol.com/stock_images/5/2024MAS11_640/2024MAS110015_640_01.jpg /var/www/html/clients/19884/images/AB2D70D3-850A-D9B2-7BD0-D6C1D76FA5AA_2.jpg
21:36:14 - https://content.homenetiol.com/stock_images/5/2024MAS11_640/2024MAS110016_640_02.jpg /var/www/html/clients/19884/images/AB2D70D3-850A-D9B2-7BD0-D6C1D76FA5AA_3.jpg
21:36:14 - https://content.homenetiol.com/stock_images/5/2024MAS11_640/2024MAS110017_640_03.jpg /var/www/html/clients/19884/images/AB2D70D3-850A-D9B2-7BD0-D6C1D76FA5AA_4.jpg
21:36:14 - https://content.homenetiol.com/stock_images/5/2024MAS11_640/2024MAS110024_640_12.jpg /var/www/html/clients/19884/images/AB2D70D3-850A-D9B2-7BD0-D6C1D76FA5AA_5.jpg
21:36:14 - Image Count 5
21:36:14 - Setting Female English VO Constants | 0 | 0
21:36:14 - ====HVO Value:1, Audio Value:0===
21:36:14 - Return from CheckProfileVal function::0 - AUDIO_INTRO - 
21:36:14 - Return from CheckProfileVal function::0 - AUDIO_OUTRO - 
21:36:14 - ================Process HVO=========== 
 1
21:36:14 - ================CLIENT SELECT TTS VM VALUE=========== 
 2
21:36:14 - 2 - 2 - /var/app/video_pre_processor/assets/hvo/
21:36:14 - Setting Female English VO Constants | 0 | 2
21:36:14 - HVO Soap Call Method - AudoListWMIE 

21:36:14 - Getting Text For Audio Files
21:36:14 - HVO Soap Call Method - AudoListTWMIE 

21:36:14 - Getting Text For Audio Files emotionalFile 3
21:36:14 - HVO Soap Call Method - GetTTScripts 

21:36:14 - Getting Text For Audio Files introEmotionalFile 25
21:36:15 - HVO Soap Call Method - GetTTScripts 

21:36:15 - Getting Text For Audio Files scriptFile 21
21:36:15 - HVO Soap Call Method - GetTTScripts 

21:36:15 - ================TTS VM VALUE=========== 
 2
21:36:15 - ================GetVOFiles=========== 
 {"OptionFiles":[{"option_str":"* General Options Intro","option_file":"http:\/\/hvo.flickfusion.net\/audio\/options\/options_fe_audio_file_55.mp3","option_saftey":1},{"option_str":"Power Passenger Seat","option_file":"http:\/\/hvo.flickfusion.net\/audio\/options\/options_fe_audio_file_242.mp3","option_saftey":1},{"option_str":"Remote Engine Start","option_file":"http:\/\/hvo.flickfusion.net\/audio\/options\/options_fe_audio_file_272.mp3","option_saftey":1},{"option_str":"ANTI-LOCK BRAKING SYSTEM","option_file":"http:\/\/hvo.flickfusion.net\/audio\/options\/options_fe_audio_file_70.mp3","option_saftey":1},{"option_str":"Steering wheel audio controls","option_file":"http:\/\/hvo.flickfusion.net\/audio\/options\/options_fe_audio_file_296.mp3","option_saftey":1},{"option_str":"All Wheel Drive","option_file":"http:\/\/hvo.flickfusion.net\/audio\/options\/options_fe_audio_file_82.mp3","option_saftey":1},{"option_str":"Power Liftgate","option_file":"http:\/\/hvo.flickfusion.net\/audio\/options\/options_fe_audio_file_238.mp3","option_saftey":1},{"option_str":"LED Headlights","option_file":"http:\/\/hvo.flickfusion.net\/audio\/options\/options_fe_audio_file_1349.mp3","option_saftey":1},{"option_str":"Bluetooth","option_file":"http:\/\/hvo.flickfusion.net\/audio\/options\/options_fe_audio_file_846.mp3","option_saftey":1},{"option_str":"Power Steering","option_file":"http:\/\/hvo.flickfusion.net\/audio\/options\/options_fe_audio_file_244.mp3","option_saftey":1},{"option_str":"Aluminum Wheels","option_file":"http:\/\/hvo.flickfusion.net\/audio\/options\/options_fe_audio_file_83.mp3","option_saftey":1},{"option_str":"4-Wheel Disc Brakes","option_file":"http:\/\/hvo.flickfusion.net\/audio\/options\/options_fe_audio_file_63.mp3","option_saftey":1},{"option_str":"Rear Defrost","option_file":"http:\/\/hvo.flickfusion.net\/audio\/options\/options_fe_audio_file_259.mp3","option_saftey":1},{"option_str":"AM\/FM STEREO RADIO","option_file":"http:\/\/hvo.flickfusion.net\/audio\/options\/options_fe_audio_file_69.mp3","option_saftey":1},{"option_str":"Power Door Locks","option_file":"http:\/\/hvo.flickfusion.net\/audio\/options\/options_fe_audio_file_234.mp3","option_saftey":1},{"option_str":"Bucket Seats","option_file":"http:\/\/hvo.flickfusion.net\/audio\/options\/options_fe_audio_file_107.mp3","option_saftey":1},{"option_str":"MP3 Player","option_file":"http:\/\/hvo.flickfusion.net\/audio\/options\/options_fe_audio_file_211.mp3","option_saftey":1},{"option_str":"Auxiliary Audio Input","option_file":"http:\/\/hvo.flickfusion.net\/audio\/options\/options_fe_audio_file_95.mp3","option_saftey":1},{"option_str":"HD Radio","option_file":"http:\/\/hvo.flickfusion.net\/audio\/options\/options_fe_audio_file_452.mp3","option_saftey":1},{"option_str":"Brake Assist","option_file":"http:\/\/hvo.flickfusion.net\/audio\/options\/options_fe_audio_file_104.mp3","option_saftey":1},{"option_str":"Daytime Running Lights","option_file":"http:\/\/hvo.flickfusion.net\/audio\/options\/options_fe_audio_file_142.mp3","option_saftey":1},{"option_str":"Remote Trunk Release","option_file":"http:\/\/hvo.flickfusion.net\/audio\/options\/options_fe_audio_file_275.mp3","option_saftey":1},{"option_str":"Power Driver Seat","option_file":"http:\/\/hvo.flickfusion.net\/audio\/options\/options_fe_audio_file_237.mp3","option_saftey":1},{"option_str":"Privacy Glass","option_file":"http:\/\/hvo.flickfusion.net\/audio\/options\/options_fe_audio_file_249.mp3","option_saftey":1},{"option_str":"Turbocharged","option_file":"http:\/\/hvo.flickfusion.net\/audio\/options\/options_fe_audio_file_322.mp3","option_saftey":1},{"option_str":"Rain Sensing Wipers","option_file":"http:\/\/hvo.flickfusion.net\/audio\/options\/options_fe_audio_file_254.mp3","option_saftey":1},{"option_str":"Integrated Turn Signal Mirrors","option_file":"http:\/\/hvo.flickfusion.net\/audio\/options\/options_fe_audio_file_198.mp3","option_saftey":1},{"option_str":"Heated Mirrors","option_file":"http:\/\/hvo.flickfusion.net\/audio\/options\/options_fe_audio_file_7.mp3","option_saftey":1},{"option_str":"Telematics","option_file":"http:\/\/hvo.flickfusion.net\/audio\/options\/options_fe_audio_file_303.mp3","option_saftey":1},{"option_str":"Rear Spoiler","option_file":"http:\/\/hvo.flickfusion.net\/audio\/options\/options_fe_audio_file_10.mp3","option_saftey":1},{"option_str":"Tires - Rear Performance","option_file":"http:\/\/hvo.flickfusion.net\/audio\/options\/options_fe_audio_file_316.mp3","option_saftey":1},{"option_str":"Tires - Front Performance","option_file":"http:\/\/hvo.flickfusion.net\/audio\/options\/options_fe_audio_file_311.mp3","option_saftey":1},{"option_str":"Sun\/Moonroof","option_file":"http:\/\/hvo.flickfusion.net\/audio\/options\/options_fe_audio_file_1484.mp3","option_saftey":1},{"option_str":"Variable Speed Intermittent Wipers","option_file":"http:\/\/hvo.flickfusion.net\/audio\/options\/options_fe_audio_file_325.mp3","option_saftey":1},{"option_str":"Smart Device Integration","option_file":"http:\/\/hvo.flickfusion.net\/audio\/options\/options_fe_audio_file_1480.mp3","option_saftey":1}],"yearFile":"http:\/\/hvo.flickfusion.net\/audio\/year\/year_fe_audio_file_66.mp3","makeFile":"http:\/\/hvo.flickfusion.net\/audio\/makes\/make_name_fe_audio_file_32.mp3","modelFile":"","modelHighlightFile":"","styleFile":"","bodytypeFile":"","transFile":"http:\/\/hvo.flickfusion.net\/audio\/domain_transmission\/transmission_fe_audio_file_2.mp3","engineFile":"http:\/\/hvo.flickfusion.net\/audio\/domain_enginesize\/enginesize_fe_audio_file_39.mp3","cylindersFile":"http:\/\/hvo.flickfusion.net\/audio\/domain_cylinders\/cylinder_fe_audio_file_5.mp3","driveTrainFile":"http:\/\/hvo.flickfusion.net\/audio\/domain_drivetrain\/drivetrain_fe_audio_file_4.mp3","priceFile":"","mileageFile":"","carfaxFile":"","emotionalFile":"http:\/\/hvo.flickfusion.net\/audio\/emotional\/emotional_fe_audio_file_3.mp3","introEmotionalFile":"http:\/\/hvo.flickfusion.net\/audio\/emotional\/ie_fe_audio_file_25.mp3","scriptFile":"http:\/\/hvo.flickfusion.net\/audio\/domain_scripts\/script_fe_audio_file_21.mp3","statusCode":"2","statusMessage":"Year or Model is Empty"}
21:36:15 - /var/www/html/clients/19884/audio/AB2D70D3-850A-D9B2-7BD0-D6C1D76FA5AA.wav
21:36:15 - ================Process HVO SOAP CALL CMD=========== 
 /usr/bin/sox
 STATUS CODE 
 2
21:36:15 - /var/app/video_pre_processor/assets/hvo/script_fe_audio_file_21.wav PlayTime:10.69
21:36:15 - Skipping VTT for HIGH - modelHighlightFile
21:36:15 - Skipping VTT for BODY - bodytypeFile
21:36:15 - Skipping VTT for PRICE - priceFile
21:36:15 - Skipping VTT for MILE - mileageFile
21:36:15 - Curl Response - {"exterior":["Rain Sensing Wipers","Headlights, Self-leveling","Moonroof","Turbocharged","Heated Mirrors","All Wheel Drive","Aluminum Wheels","Rear Spoiler","Remote Engine Start","Power Liftgate","Power Mirrors","Brake Assist","Intermittent Wipers","Daytime Running Lights","Auto Headlight On\/off","Privacy Glass","Integrated Turn Signal Mirrors","Remote Trunk Release","Led Headlights","4-wheel Disc Brakes","Variable Speed Intermittent Wipers"],"interior":["Wireless Charging Pad","Smart Device Integration","Hd Radio","Auxiliary Audio Input","Steering Wheel Audio Controls","Mp3 Player","Power Door Locks","Power Steering","Power Passenger Seat","Bucket Seats","Rear Defrost","Telematics","Power Driver Seat","Sun\/moonroof","Am\/fm Stereo Radio","Rear Defroster"]}
21:36:15 - ============={"exterior":["Rain Sensing Wipers","Headlights, Self-leveling","Moonroof","Turbocharged","Heated Mirrors","All Wheel Drive","Aluminum Wheels","Rear Spoiler","Remote Engine Start","Power Liftgate","Power Mirrors","Brake Assist","Intermittent Wipers","Daytime Running Lights","Auto Headlight On\/off","Privacy Glass","Integrated Turn Signal Mirrors","Remote Trunk Release","Led Headlights","4-wheel Disc Brakes","Variable Speed Intermittent Wipers"],"interior":["Wireless Charging Pad","Smart Device Integration","Hd Radio","Auxiliary Audio Input","Steering Wheel Audio Controls","Mp3 Player","Power Door Locks","Power Steering","Power Passenger Seat","Bucket Seats","Rear Defrost","Telematics","Power Driver Seat","Sun\/moonroof","Am\/fm Stereo Radio","Rear Defroster"]}===============
21:36:15 - /var/app/video_pre_processor/assets/hvo/options_fe_audio_file_55.wav PlayTime:2.35
21:36:15 - /var/app/video_pre_processor/assets/hvo/options_fe_audio_file_254.wav PlayTime:1.59
21:36:15 - /var/app/video_pre_processor/assets/hvo/options_fe_audio_file_322.wav PlayTime:1.18
21:36:15 - /var/app/video_pre_processor/assets/hvo/options_fe_audio_file_7.wav PlayTime:1.02
21:36:15 - /var/app/video_pre_processor/assets/hvo/options_fe_audio_file_82.wav PlayTime:1.18
21:36:15 - /var/app/video_pre_processor/assets/hvo/options_fe_audio_file_83.wav PlayTime:1.2
21:36:15 - /var/app/video_pre_processor/assets/hvo/options_fe_audio_file_10.wav PlayTime:1.1
21:36:15 - /var/app/video_pre_processor/assets/hvo/options_fe_audio_file_272.wav PlayTime:1.44
21:36:15 - /var/app/video_pre_processor/assets/hvo/options_fe_audio_file_238.wav PlayTime:1.2
21:36:15 - /var/app/video_pre_processor/assets/hvo/options_fe_audio_file_104.wav PlayTime:1.12
21:36:15 - /var/app/video_pre_processor/assets/hvo/options_fe_audio_file_142.wav PlayTime:1.57
21:36:15 - ======= ALL Options  ========== 
null
21:36:15 - /var/www/html/clients/19884/audio/AB2D70D3-850A-D9B2-7BD0-D6C1D76FA5AA_option.wav
21:36:15 - /usr/bin/sox /var/app/video_pre_processor/assets/hvo/options_fe_audio_file_55.wav /var/app/video_pre_processor/assets/hvo/options_fe_audio_file_254.wav /var/app/video_pre_processor/assets/hvo/options_fe_audio_file_322.wav /var/app/video_pre_processor/assets/hvo/options_fe_audio_file_7.wav /var/app/video_pre_processor/assets/hvo/options_fe_audio_file_82.wav /var/app/video_pre_processor/assets/hvo/options_fe_audio_file_83.wav /var/app/video_pre_processor/assets/hvo/options_fe_audio_file_10.wav /var/app/video_pre_processor/assets/hvo/options_fe_audio_file_272.wav /var/app/video_pre_processor/assets/hvo/options_fe_audio_file_238.wav /var/app/video_pre_processor/assets/hvo/options_fe_audio_file_104.wav /var/app/video_pre_processor/assets/hvo/options_fe_audio_file_142.wav /var/www/html/clients/19884/audio/AB2D70D3-850A-D9B2-7BD0-D6C1D76FA5AA_option.wav
21:36:15 - /var/www/html/clients/19884/audio/AB2D70D3-850A-D9B2-7BD0-D6C1D76FA5AA_option.wav PlayTime:14.94
21:36:15 - Skipping VTT for CARFAX - carfaxFile
21:36:15 - /var/app/video_pre_processor/assets/hvo/emotional_fe_audio_file_3.wav PlayTime:1.78
21:36:15 - /usr/bin/sox /var/app/video_pre_processor/assets/hvo/script_fe_audio_file_21.wav /var/www/html/clients/19884/audio/AB2D70D3-850A-D9B2-7BD0-D6C1D76FA5AA_option.wav /var/app/video_pre_processor/assets/hvo/emotional_fe_audio_file_3.wav /var/www/html/clients/19884/audio/AB2D70D3-850A-D9B2-7BD0-D6C1D76FA5AA_temp1.wav
21:36:15 - Return from CheckProfileVal function::0 - REPLACE_FULL_AUDIO - 
21:36:15 - Return from CheckProfileVal function::0 - REPLACE_FULL_AUDIO_NEW - 
21:36:15 - ========REPALCE AUDIO TRACK LISTING TYPE new \ n USED VALUE : 0 NEW AUDIO VALUE : { 0} ==============

21:36:15 - Video Length for audio merge: 0
21:36:15 - /root/bin/ffmpeg  -i /var/www/html/clients/19884/audio/AB2D70D3-850A-D9B2-7BD0-D6C1D76FA5AA.wav -f mp3 -ar 44100 -ab 320 -ac 2 -y /var/www/html/clients/19884/audio/AB2D70D3-850A-D9B2-7BD0-D6C1D76FA5AA.mp3
ffmpeg version N-109053-g9b13078c6a Copyright (c) 2000-2022 the FFmpeg developers
  built with gcc 5.4.0 (GCC)
  configuration: --prefix=/root/ffmpeg_build --pkg-config-flags=--static --extra-cflags=-I/root/ffmpeg_build/include --extra-ldflags=-L/root/ffmpeg_build/lib --extra-libs=-lpthread --extra-libs=-lm --bindir=/root/bin --enable-gpl --enable-libfdk_aac --enable-libfreetype --enable-libmp3lame --enable-libopus --enable-libvpx --enable-libx264 --enable-openssl --enable-libx265 --enable-nonfree --enable-libvidstab
  libavutil      57. 42.100 / 57. 42.100
  libavcodec     59. 52.101 / 59. 52.101
  libavformat    59. 34.101 / 59. 34.101
  libavdevice    59.  8.101 / 59.  8.101
  libavfilter     8. 50.100 /  8. 50.100
  libswscale      6.  8.112 /  6.  8.112
  libswresample   4.  9.100 /  4.  9.100
  libpostproc    56.  7.100 / 56.  7.100
Guessed Channel Layout for Input Stream #0.0 : stereo
Input #0, wav, from '/var/www/html/clients/19884/audio/AB2D70D3-850A-D9B2-7BD0-D6C1D76FA5AA.wav':
  Duration: 00:00:27.41, bitrate: 1411 kb/s
  Stream #0:0: Audio: pcm_s16le ([1][0][0][0] / 0x0001), 44100 Hz, 2 channels, s16, 1411 kb/s
Stream mapping:
  Stream #0:0 -> #0:0 (pcm_s16le (native) -> mp3 (libmp3lame))
Press [q] to stop, [?] for help
[libmp3lame @ 0x4335480] Bitrate 320 is extremely low, maybe you mean 320k
The bitrate parameter is set too low. It takes bits/s as argument, not kbits/s
Output #0, mp3, to '/var/www/html/clients/19884/audio/AB2D70D3-850A-D9B2-7BD0-D6C1D76FA5AA.mp3':
  Metadata:
    TSSE            : Lavf59.34.101
  Stream #0:0: Audio: mp3, 44100 Hz, stereo, s16p, 0 kb/s
    Metadata:
      encoder         : Lavc59.52.101 libmp3lame
size=       0kB time=-577014:32:22.77 bitrate=  -0.0kbits/s speed=N/A    
size=      95kB time=00:00:06.03 bitrate= 128.3kbits/s speed=  12x    
size=     207kB time=00:00:13.24 bitrate= 128.1kbits/s speed=13.2x    
size=     256kB time=00:00:20.27 bitrate= 103.5kbits/s speed=13.5x    
size=     256kB time=00:00:27.27 bitrate=  76.9kbits/s speed=13.6x    
size=     429kB time=00:00:27.40 bitrate= 128.3kbits/s speed=13.6x    
video:0kB audio:429kB subtitle:0kB other streams:0kB global headers:0kB muxing overhead: 0.057595%
21:36:17 - /var/app/video_pre_processor/assets/vidbot/_files/audio/RF5_Lounge_Jazz.mp3 PlayTime:367.3
21:36:17 - Using RF5_Lounge_Jazz.mp3 - /var/app/video_pre_processor/assets/vidbot/_files/audio/RF5_Lounge_Jazz.mp3
21:36:17 - BG MUSIC FILE /var/app/video_pre_processor/assets/vidbot/_files/audio/RF5_Lounge_Jazz.mp3 

21:36:17 - BG AUDIO CLIENT OVELAY VALUE : 2 

21:36:17 - /var/www/html/clients/19884/audio/AB2D70D3-850A-D9B2-7BD0-D6C1D76FA5AA.wav PlayTime:27.41
21:36:17 - VParent - VOLEN:29.41 | /var/www/html/clients/19884/audio/AB2D70D3-850A-D9B2-7BD0-D6C1D76FA5AA.mp3 | /var/app/video_pre_processor/assets/vidbot/_files/audio/RF5_Lounge_Jazz.mp3 | /var/www/html/clients/19884/audio/AB2D70D3-850A-D9B2-7BD0-D6C1D76FA5AA.wav
21:36:17 - AUDIO PROCESS RETURN VALUE: - 1
21:36:17 - update message_remote_queue set video_process_start = '2024-06-24 21:36:17' where queue_id = 306761
21:36:17 - CLIENT INFO DATA 
{"client_id":"19884","client_fk":"0256EE42-99B2-4314-41B8-8073B80A46F7","client_acc_id":"3","client_name":"Chapman Ford Lincoln Mercury Mazda","client_desc":"Chapman Ford Lincoln Mercury Mazda","client_color":"","client_player_color":"","client_textcolor":"","client_tts_text":"","client_tts_options":"","client_inactive":"0","client_createdate":"2024-03-29 10:59:34","client_enddate":"","client_update":"2024-04-24 11:35:27","client_email_forward":"","client_dealer_id":"2154832","client_franchise_number":"","client_salesperson_name":"","client_address":"","client_city":"","client_state":"","client_zip":"","client_phone":"","client_url":"","client_fb_id":"","client_km":"0","client_special_price":"0","client_demo":"0","client_utube_flag":"1","client_cvo":"0","client_tts":"1","client_live_uv":"1","client_live_overlay":"2","client_av":"1","client_gv":"0","client_af":"0","client_video_email":"0","client_carfax":"0","client_intro":"0","client_outro":"0","client_slider":"1","client_music_id":"36","client_ei":"0","client_tts_vm":"2","client_hvo":"1","client_mobile":"1","client_portal":"0","client_instavid":"0","client_new_stock_video":"0","client_vidmagnet":"1","client_auto_play":"1","client_cpo":"1","client_vid_stab":"0","client_vp":"0","client_xl":"0","client_carstory":"0","client_360_player":"0","client_ece":"0","client_capture_video":"0","client_new_cvo":"0","client_pip":"1","client_account_id":"","client_crm_email":"","client_crm_dealer_id":"","client_crm_dealer_key":"","client_archive":"0","client_damage_photo":"0","client_package":"3","client_video_size":"HDLARGE","client_video_style":"FULL","client_lat_lng":"","client_comments":"","SHOW_CARSTORY":"0"}
21:36:17 180 - ShellApp::DownloadExternalFile - Array
(
    [url] => http://gcsimages.storage.googleapis.com/clients/19884/library/map.jpg
    [content_type] => application/xml; charset=UTF-8
    [http_code] => 403
    [header_size] => 410
    [request_size] => 226
    [filetime] => -1
    [ssl_verify_result] => 0
    [redirect_count] => 0
    [total_time] => 0.105336
    [namelookup_time] => 0.004194
    [connect_time] => 0.026066
    [pretransfer_time] => 0.026133
    [size_upload] => 0
    [size_download] => 298
    [speed_download] => 2829
    [speed_upload] => 0
    [download_content_length] => 298
    [upload_content_length] => 0
    [starttransfer_time] => 0.105299
    [redirect_time] => 0
    [redirect_url] => 
    [primary_ip] => 142.250.191.219
    [certinfo] => Array
        (
        )

    [primary_port] => 80
    [local_ip] => 209.59.156.167
    [local_port] => 35052
)

21:36:17 - File Download Failed http://gcsimages.storage.googleapis.com/clients/19884/library/map.jpg - /var/www/html/clients/19884/library/map.jpg
21:36:17 - ERROR:: Invalid Dealer Address - , ,   
21:36:17 - Checking CUSTOM_INTRO
21:36:17 - Checking CUSTOM_OUTRO
21:36:17 - ================CREATE VIDEO START =========== 

21:36:17 - ================VIDEO JSON GEN START ==============
21:36:17 - Video Size 360
21:36:17 - ===========Video Theme font ================Dinot
21:36:17 - ==========Video fk : ==============AB2D70D3-850A-D9B2-7BD0-D6C1D76FA5AA
21:36:17 - ==============AUDIO VIDEO CONFIG : =========={"BG_MUSIC":"RF5_Lounge_Jazz","THEME_BG_COLOR":"ffffff","THEME_ACCENTS_COLOR":"047ec1","THEME_FONT_COLOR":"000000","THEME_FONT":"Dinot","THEME_STYLE":"Ren","BG_VOL_LEVEL":"0.25","AUDIO_VO":"VO","VIDEO_SIZE":"VIDEO_LARGE","CUSTOM_INTRO":"","CUSTOM_OUTRO":"","THEME_KEY":"3_0_Auto_Default_0_ALL","THEME_RANK":"2","THEME_CONFIG":"RESELLER_CONFIG","DISABLE_PRICE":"YES","DISPLAY_INFO":"NO","DISPLAY_MAP":"NO","DISPLAY_MILEAGE":"NO","DISPLAY_OPTIONS":"NO","DISPLAY_PRICE":"NO","OLD_BG_STYLE":"0"}
21:36:17 - CLIENT FKEY :  0256EE42-99B2-4314-41B8-8073B80A46F7  VIDEO FKEY :  AB2D70D3-850A-D9B2-7BD0-D6C1D76FA5AA  VEHICLE FKEY :   
21:36:17 - INFO:: Video Type:SS Video Size:360 
21:36:17 - ==================ClipsGen START  =====================

21:36:17 - Return from CheckProfileVal function::0 - AUDIO_VO - NO_VO
21:36:17 - Return from CheckProfileVal function::0 - AUDIO_VO - NO_VO
21:36:17 - Return from CheckProfileVal function::0 - AUDIO_VO - LIVE_VO
21:36:17 - Return from CheckProfileVal function::0 - AUDIO_VO - LIVE_VO
21:36:17 - Return from CheckProfileVal function::0 - DISPLAY_OPTIONS - NO
21:36:17 - Return from CheckProfileVal function::1 - DISPLAY_OPTIONS - NO
21:36:17 - Return from CheckProfileVal function::0 - DISPLAY_PRICE - NO
21:36:17 - Return from CheckProfileVal function::1 - DISPLAY_PRICE - NO
21:36:17 - Return from CheckProfileVal function::0 - DISPLAY_MILEAGE - NO
21:36:17 - Return from CheckProfileVal function::1 - DISPLAY_MILEAGE - NO
21:36:17 - Return from CheckProfileVal function::0 - DISPLAY_INFO - NO
21:36:17 - Return from CheckProfileVal function::1 - DISPLAY_INFO - NO
21:36:17 - Return from CheckProfileVal function::0 - DISPLAY_TITLE_WSNAME - NO
21:36:17 - Return from CheckProfileVal function::0 - DISPLAY_TITLE_WSNAME - NO
21:36:17 - Return from CheckProfileVal function::0 - DISPLAY_ALL_OVERLAYS - NO
21:36:17 - Return from CheckProfileVal function::0 - DISPLAY_ALL_OVERLAYS - NO
21:36:17 - Return from CheckProfileVal function::0 - DISPLAY_MAP - NO
21:36:17 - Return from CheckProfileVal function::1 - DISPLAY_MAP - NO
21:36:17 - =========THEME STYLE-FONT :Ren - Din  ============
21:36:17 - /var/app/video_pre_processor/assets/vidbot/_files/audio/RF5_Lounge_Jazz.mp3 PlayTime:367.3
21:36:17 - Return from CheckProfileVal function::0 - BG_MUSIC_OVER_ALL_CLIPS - YES
21:36:17 - Return from CheckProfileVal function::0 - BG_MUSIC_OVER_ALL_CLIPS - YES
21:36:17 - AUDIO TIMER: 
{"FALLBACK_SCRIPT":0,"ALL_OPTIONS":{"* General Options Intro":10.69,"Rain Sensing Wipers":13.04,"Turbocharged":14.629999999999999,"Heated Mirrors":15.809999999999999,"All Wheel Drive":16.83,"Aluminum Wheels":18.009999999999998,"Rear Spoiler":19.209999999999997,"Remote Engine Start":20.31,"Power Liftgate":21.75,"Brake Assist":22.95,"Daytime Running Lights":24.07},"OPTIONS":12.69,"OPTIONS_AUD_LENGTH":14.94,"ENDFILE":25.64}
21:36:17 - ===================ClipsGen END  ======================== 

21:36:17 - INFO:: VIDEO JSON : "AB2D70D3-850A-D9B2-7BD0-D6C1D76FA5AA.json"
21:36:17 - node /var/app/Vidbot-V2/dist/vidbot.js --input /var/www/html/clients/19884/video/AB2D70D3-850A-D9B2-7BD0-D6C1D76FA5AA.json --log debug > /var/www/html/clients/19884/video/AB2D70D3-850A-D9B2-7BD0-D6C1D76FA5AA.log
21:38:13 - Generated Video File./var/www/html/clients/19884/video/AB2D70D3-850A-D9B2-7BD0-D6C1D76FA5AA.mp4
21:38:13 - INFO:: Generated Video File./var/www/html/clients/19884/video/AB2D70D3-850A-D9B2-7BD0-D6C1D76FA5AA.mp4
21:38:13 - INFO:: Sprite & Bookmark Option(s) not enabled
21:38:13 - ================VIDEO JSON GEN END RETURN VALUE : 1 ============== 
21:38:13 - ================CREATE VIDEO END =========== 
 ERROR : { 0}
21:38:13 - Start Time:0
21:38:13 - 0##10.69##You'll love this vehicle. This is a vehicle you'll want to take home. Call today and get in touch with dealer directly and be the first to open the vehicle's door today!
21:38:13 - Replacing VTT String * General Options Intro to Here are some of this Vehicle's great options
21:38:13 - 10.69##13.04##Here are some of this Vehicle's great options
21:38:13 - 13.04##14.63##Rain Sensing Wipers
21:38:13 - 14.63##15.81##Turbocharged
21:38:13 - 15.81##16.83##Heated Mirrors
21:38:13 - 16.83##18.01##All Wheel Drive
21:38:13 - 18.01##19.21##Aluminum Wheels
21:38:13 - 19.21##20.31##Rear Spoiler
21:38:13 - 20.31##21.75##Remote Engine Start
21:38:13 - 21.75##22.95##Power Liftgate
21:38:13 - 22.95##24.07##Brake Assist
21:38:13 - 24.07##25.64##Daytime Running Lights
21:38:13 - 25.64##27.42##Come see the car for yourself.
21:38:13 - Curl Response - {"code":200,"status":"VTT Updated"}
21:38:13 - Contents - /postVTTString/ - VTT Updated - 200
0##10.69##You'll love this vehicle. This is a vehicle you'll want to take home. Call today and get in touch with dealer directly and be the first to open the vehicle's door today!|||10.69##13.04##Here are some of this Vehicle's great options|||13.04##14.63##Rain Sensing Wipers|||14.63##15.81##Turbocharged|||15.81##16.83##Heated Mirrors|||16.83##18.01##All Wheel Drive|||18.01##19.21##Aluminum Wheels|||19.21##20.31##Rear Spoiler|||20.31##21.75##Remote Engine Start|||21.75##22.95##Power Liftgate|||22.95##24.07##Brake Assist|||24.07##25.64##Daytime Running Lights|||25.64##27.42##Come see the car for yourself.
21:38:13 - VIDEO JSON GEN RETURN VALUE: - 0
21:38:13 - update message_remote_queue set error=0, video = 1, error_message = concat( "", error_message ), process_start = '2024-06-24 21:36:14', audio_process_start = '2024-06-24 21:36:14', audio_process_end = '2024-06-24 21:36:17', video_process_start ='2024-06-24 21:36:17', video_process_end='2024-06-24 21:38:13' where queue_id = 306761
21:38:13 - ==44 - 1 Elapsed Time 119 ==

21:38:13 - update queue_status set stat_last_update=NOW(), type_cnt = 44, type_loop_cnt = 479 where type_val = 'V10'
21:38:13 - Curl Response - {"code":200,"status":"Success:PostServerProcessDetails Posted For IP [209.59.156.167] and Process [V10]"}
21:38:13 - Contents - /postServerProcessDetails/ - Success:PostServerProcessDetails Posted For IP [209.59.156.167] and Process [V10] - 200
21:38:13 - update queue_status set stat_last_update=NOW(), type_cnt = 44, type_loop_cnt = 479 where type_val = 'V10'
21:38:13 - Curl Response - {"code":200,"status":"Success:PostServerProcessDetails Posted For IP [209.59.156.167] and Process [V10]"}
21:38:13 - Contents - /postServerProcessDetails/ - Success:PostServerProcessDetails Posted For IP [209.59.156.167] and Process [V10] - 200
21:38:13 - ========== 44  - 254 mins 346.43272727273 Video Process / Start:2024-06-24 15:33:02 / Mod:9/16======
21:38:14 - Fetching  Video Jobs Mod Val : 9 Mod Limit : 16 Queue ID : 0 

21:38:14 - ========select * from message_remote_queue, hvo_data where queue_id%16 = 9 and image = 1 and video = 0 and error = 0 and hvo_queue_id = queue_id   order by high_priority_row desc, queue_id asc limit 1==================count =0
21:38:14 - update queue_status set stat_last_update=NOW(), type_cnt = 44, type_loop_cnt = 480 where type_val = 'V10'
21:38:14 - Curl Response - {"code":200,"status":"Success:PostServerProcessDetails Posted For IP [209.59.156.167] and Process [V10]"}
21:38:14 - Contents - /postServerProcessDetails/ - Success:PostServerProcessDetails Posted For IP [209.59.156.167] and Process [V10] - 200
21:38:14 - ========== 44  - 254 mins 346.43272727273 Video Process / Start:2024-06-24 15:33:02 / Mod:9/16======
21:38:29 - Fetching  Video Jobs Mod Val : 9 Mod Limit : 16 Queue ID : 0 

21:38:29 - ========select * from message_remote_queue, hvo_data where queue_id%16 = 9 and image = 1 and video = 0 and error = 0 and hvo_queue_id = queue_id   order by high_priority_row desc, queue_id asc limit 1==================count =0
21:38:29 - update queue_status set stat_last_update=NOW(), type_cnt = 44, type_loop_cnt = 481 where type_val = 'V10'
21:38:30 - Curl Response - {"code":200,"status":"Success:PostServerProcessDetails Posted For IP [209.59.156.167] and Process [V10]"}
21:38:30 - Contents - /postServerProcessDetails/ - Success:PostServerProcessDetails Posted For IP [209.59.156.167] and Process [V10] - 200
21:38:30 - ========== 44  - 254 mins 346.43272727273 Video Process / Start:2024-06-24 15:33:02 / Mod:9/16======
21:38:45 - Fetching  Video Jobs Mod Val : 9 Mod Limit : 16 Queue ID : 0 

21:38:45 - ========select * from message_remote_queue, hvo_data where queue_id%16 = 9 and image = 1 and video = 0 and error = 0 and hvo_queue_id = queue_id   order by high_priority_row desc, queue_id asc limit 1==================count =0
21:38:45 - update queue_status set stat_last_update=NOW(), type_cnt = 44, type_loop_cnt = 482 where type_val = 'V10'
21:38:45 - Curl Response - {"code":200,"status":"Success:PostServerProcessDetails Posted For IP [209.59.156.167] and Process [V10]"}
21:38:45 - Contents - /postServerProcessDetails/ - Success:PostServerProcessDetails Posted For IP [209.59.156.167] and Process [V10] - 200
21:38:45 - ========== 44  - 254 mins 346.43272727273 Video Process / Start:2024-06-24 15:33:02 / Mod:9/16======
21:39:00 - Fetching  Video Jobs Mod Val : 9 Mod Limit : 16 Queue ID : 0 

21:39:00 - ========select * from message_remote_queue, hvo_data where queue_id%16 = 9 and image = 1 and video = 0 and error = 0 and hvo_queue_id = queue_id   order by high_priority_row desc, queue_id asc limit 1==================count =0
21:39:00 - update queue_status set stat_last_update=NOW(), type_cnt = 44, type_loop_cnt = 483 where type_val = 'V10'
21:39:00 - Curl Response - {"code":200,"status":"Success:PostServerProcessDetails Posted For IP [209.59.156.167] and Process [V10]"}
21:39:00 - Contents - /postServerProcessDetails/ - Success:PostServerProcessDetails Posted For IP [209.59.156.167] and Process [V10] - 200
21:39:00 - ========== 44  - 254 mins 346.43272727273 Video Process / Start:2024-06-24 15:33:02 / Mod:9/16======
21:39:15 - Fetching  Video Jobs Mod Val : 9 Mod Limit : 16 Queue ID : 0 

21:39:15 - ========select * from message_remote_queue, hvo_data where queue_id%16 = 9 and image = 1 and video = 0 and error = 0 and hvo_queue_id = queue_id   order by high_priority_row desc, queue_id asc limit 1==================count =0
21:39:15 - update queue_status set stat_last_update=NOW(), type_cnt = 44, type_loop_cnt = 484 where type_val = 'V10'
21:39:15 - Curl Response - {"code":200,"status":"Success:PostServerProcessDetails Posted For IP [209.59.156.167] and Process [V10]"}
21:39:15 - Contents - /postServerProcessDetails/ - Success:PostServerProcessDetails Posted For IP [209.59.156.167] and Process [V10] - 200
21:39:15 - ========== 44  - 254 mins 346.43272727273 Video Process / Start:2024-06-24 15:33:02 / Mod:9/16======
21:39:30 - Fetching  Video Jobs Mod Val : 9 Mod Limit : 16 Queue ID : 0 

21:39:30 - ========select * from message_remote_queue, hvo_data where queue_id%16 = 9 and image = 1 and video = 0 and error = 0 and hvo_queue_id = queue_id   order by high_priority_row desc, queue_id asc limit 1==================count =0
21:39:30 - update queue_status set stat_last_update=NOW(), type_cnt = 44, type_loop_cnt = 485 where type_val = 'V10'
21:39:30 - Curl Response - {"code":200,"status":"Success:PostServerProcessDetails Posted For IP [209.59.156.167] and Process [V10]"}
21:39:30 - Contents - /postServerProcessDetails/ - Success:PostServerProcessDetails Posted For IP [209.59.156.167] and Process [V10] - 200
21:39:30 - ========== 44  - 254 mins 346.43272727273 Video Process / Start:2024-06-24 15:33:02 / Mod:9/16======
21:39:45 - Fetching  Video Jobs Mod Val : 9 Mod Limit : 16 Queue ID : 0 

21:39:45 - ========select * from message_remote_queue, hvo_data where queue_id%16 = 9 and image = 1 and video = 0 and error = 0 and hvo_queue_id = queue_id   order by high_priority_row desc, queue_id asc limit 1==================count =0
21:39:45 - update queue_status set stat_last_update=NOW(), type_cnt = 44, type_loop_cnt = 486 where type_val = 'V10'
21:39:46 - Curl Response - {"code":200,"status":"Success:PostServerProcessDetails Posted For IP [209.59.156.167] and Process [V10]"}
21:39:46 - Contents - /postServerProcessDetails/ - Success:PostServerProcessDetails Posted For IP [209.59.156.167] and Process [V10] - 200
21:39:46 - ========== 44  - 254 mins 346.43272727273 Video Process / Start:2024-06-24 15:33:02 / Mod:9/16======
21:40:01 - Fetching  Video Jobs Mod Val : 9 Mod Limit : 16 Queue ID : 0 

21:40:01 - ========select * from message_remote_queue, hvo_data where queue_id%16 = 9 and image = 1 and video = 0 and error = 0 and hvo_queue_id = queue_id   order by high_priority_row desc, queue_id asc limit 1==================count =0
21:40:01 - update queue_status set stat_last_update=NOW(), type_cnt = 44, type_loop_cnt = 487 where type_val = 'V10'
21:40:01 - Curl Response - {"code":200,"status":"Success:PostServerProcessDetails Posted For IP [209.59.156.167] and Process [V10]"}
21:40:01 - Contents - /postServerProcessDetails/ - Success:PostServerProcessDetails Posted For IP [209.59.156.167] and Process [V10] - 200
21:40:01 - ========== 44  - 254 mins 346.43272727273 Video Process / Start:2024-06-24 15:33:02 / Mod:9/16======
21:40:16 - Fetching  Video Jobs Mod Val : 9 Mod Limit : 16 Queue ID : 0 

21:40:16 - ========select * from message_remote_queue, hvo_data where queue_id%16 = 9 and image = 1 and video = 0 and error = 0 and hvo_queue_id = queue_id   order by high_priority_row desc, queue_id asc limit 1==================count =0
21:40:16 - update queue_status set stat_last_update=NOW(), type_cnt = 44, type_loop_cnt = 488 where type_val = 'V10'
21:40:16 - Curl Response - {"code":200,"status":"Success:PostServerProcessDetails Posted For IP [209.59.156.167] and Process [V10]"}
21:40:16 - Contents - /postServerProcessDetails/ - Success:PostServerProcessDetails Posted For IP [209.59.156.167] and Process [V10] - 200
21:40:16 - ========== 44  - 254 mins 346.43272727273 Video Process / Start:2024-06-24 15:33:02 / Mod:9/16======
21:40:31 - Fetching  Video Jobs Mod Val : 9 Mod Limit : 16 Queue ID : 0 

21:40:31 - ========select * from message_remote_queue, hvo_data where queue_id%16 = 9 and image = 1 and video = 0 and error = 0 and hvo_queue_id = queue_id   order by high_priority_row desc, queue_id asc limit 1==================count =0
21:40:31 - update queue_status set stat_last_update=NOW(), type_cnt = 44, type_loop_cnt = 489 where type_val = 'V10'
21:40:31 - Curl Response - {"code":200,"status":"Success:PostServerProcessDetails Posted For IP [209.59.156.167] and Process [V10]"}
21:40:31 - Contents - /postServerProcessDetails/ - Success:PostServerProcessDetails Posted For IP [209.59.156.167] and Process [V10] - 200
21:40:31 - ========== 44  - 254 mins 346.43272727273 Video Process / Start:2024-06-24 15:33:02 / Mod:9/16======
21:40:46 - Fetching  Video Jobs Mod Val : 9 Mod Limit : 16 Queue ID : 0 

21:40:46 - ========select * from message_remote_queue, hvo_data where queue_id%16 = 9 and image = 1 and video = 0 and error = 0 and hvo_queue_id = queue_id   order by high_priority_row desc, queue_id asc limit 1==================count =0
21:40:46 - update queue_status set stat_last_update=NOW(), type_cnt = 44, type_loop_cnt = 490 where type_val = 'V10'
21:40:46 - Curl Response - {"code":200,"status":"Success:PostServerProcessDetails Posted For IP [209.59.156.167] and Process [V10]"}
21:40:46 - Contents - /postServerProcessDetails/ - Success:PostServerProcessDetails Posted For IP [209.59.156.167] and Process [V10] - 200
21:40:46 - ========== 44  - 254 mins 346.43272727273 Video Process / Start:2024-06-24 15:33:02 / Mod:9/16======
21:41:01 - Fetching  Video Jobs Mod Val : 9 Mod Limit : 16 Queue ID : 0 

21:41:01 - ========select * from message_remote_queue, hvo_data where queue_id%16 = 9 and image = 1 and video = 0 and error = 0 and hvo_queue_id = queue_id   order by high_priority_row desc, queue_id asc limit 1==================count =0
21:41:01 - update queue_status set stat_last_update=NOW(), type_cnt = 44, type_loop_cnt = 491 where type_val = 'V10'
21:41:01 - Curl Response - {"code":200,"status":"Success:PostServerProcessDetails Posted For IP [209.59.156.167] and Process [V10]"}
21:41:01 - Contents - /postServerProcessDetails/ - Success:PostServerProcessDetails Posted For IP [209.59.156.167] and Process [V10] - 200
21:41:01 - ========== 44  - 254 mins 346.43272727273 Video Process / Start:2024-06-24 15:33:02 / Mod:9/16======
21:41:16 - Fetching  Video Jobs Mod Val : 9 Mod Limit : 16 Queue ID : 0 

21:41:16 - ========select * from message_remote_queue, hvo_data where queue_id%16 = 9 and image = 1 and video = 0 and error = 0 and hvo_queue_id = queue_id   order by high_priority_row desc, queue_id asc limit 1==================count =0
21:41:16 - update queue_status set stat_last_update=NOW(), type_cnt = 44, type_loop_cnt = 492 where type_val = 'V10'
21:41:17 - Curl Response - {"code":200,"status":"Success:PostServerProcessDetails Posted For IP [209.59.156.167] and Process [V10]"}
21:41:17 - Contents - /postServerProcessDetails/ - Success:PostServerProcessDetails Posted For IP [209.59.156.167] and Process [V10] - 200
21:41:17 - ========== 44  - 254 mins 346.43272727273 Video Process / Start:2024-06-24 15:33:02 / Mod:9/16======