File Not Found : http://howdoistarttoinvestinrealestate.com/clients/5955/video/C9720C77-248C-3AC8-2B10-691667D0EE37.mp4.fflog
ffmpeg version N-109053-g9b13078c6a Copyright (c) 2000-2022 the FFmpeg developers
  built with gcc 5.4.0 (GCC)
  configuration: --prefix=/root/ffmpeg_build --pkg-config-flags=--static --extra-cflags=-I/root/ffmpeg_build/include --extra-ldflags=-L/root/ffmpeg_build/lib --extra-libs=-lpthread --extra-libs=-lm --bindir=/root/bin --enable-gpl --enable-libfdk_aac --enable-libfreetype --enable-libmp3lame --enable-libopus --enable-libvpx --enable-libx264 --enable-openssl --enable-libx265 --enable-nonfree --enable-libvidstab
  libavutil      57. 42.100 / 57. 42.100
  libavcodec     59. 52.101 / 59. 52.101
  libavformat    59. 34.101 / 59. 34.101
  libavdevice    59.  8.101 / 59.  8.101
  libavfilter     8. 50.100 /  8. 50.100
  libswscale      6.  8.112 /  6.  8.112
  libswresample   4.  9.100 /  4.  9.100
  libpostproc    56.  7.100 / 56.  7.100
Input #0, lavfi, from 'color=c=000000:s=640x360:r=30:duration=60':
  Duration: N/A, start: 0.000000, bitrate: N/A
  Stream #0:0: Video: wrapped_avframe, yuv420p, 640x360 [SAR 1:1 DAR 16:9], 30 fps, 30 tbr, 30 tbn
Input #1, image2, from './tmp/canvas_1333747893899_%05d.png':
  Duration: 00:01:12.04, start: 0.000000, bitrate: N/A
  Stream #1:0: Video: png, rgba(pc), 640x360, 25 fps, 25 tbr, 25 tbn
Input #2, mp3, from 'file:///var/www/html/clients/5955/audio/C9720C77-248C-3AC8-2B10-691667D0EE37.mp3':
  Metadata:
    encoder         : Lavf59.34.101
  Duration: 00:00:43.26, start: 0.025057, bitrate: 128 kb/s
  Stream #2:0: Audio: mp3, 44100 Hz, stereo, fltp, 128 kb/s
    Metadata:
      encoder         : Lavc59.52
Input #3, mp3, from 'file:///var/app/video_pre_processor/assets/vidbot/_files/audio/bgmusic.mp3':
  Metadata:
    copyright       : Copyright 2000, Sounddogs.com
    title           : PushinOnComp_LM_DG02_140
    encoder         : Lavf57.82.101
  Duration: 00:03:11.58, start: 0.025057, bitrate: 128 kb/s
  Stream #3:0: Audio: mp3, 44100 Hz, stereo, fltp, 128 kb/s
    Metadata:
      encoder         : Lavc57.10
Stream mapping:
  Stream #0:0 (wrapped_avframe) -> overlay
  Stream #1:0 (png) -> overlay
  Stream #2:0 (mp3float) -> volume:default
  Stream #3:0 (mp3float) -> volume:default
  amix:default -> Stream #0:0 (aac)
  overlay:default -> Stream #0:1 (libx264)
Press [q] to stop, [?] for help
[image2 @ 0x370bd00] Thread message queue blocking; consider raising the thread_queue_size option (current value: 8)
[libx264 @ 0x3741dc0] using SAR=1/1
[libx264 @ 0x3741dc0] using cpu capabilities: MMX2 SSE2Fast SSSE3 SSE4.2 AVX FMA3 BMI2 AVX2
[libx264 @ 0x3741dc0] profile High, level 3.0, 4:2:0, 8-bit
[libx264 @ 0x3741dc0] 264 - core 164 - H.264/MPEG-4 AVC codec - Copyleft 2003-2022 - http://www.videolan.org/x264.html - options: cabac=1 ref=1 deblock=1:0:0 analyse=0x3:0x113 me=hex subme=2 psy=1 psy_rd=1.00:0.00 mixed_ref=0 me_range=16 chroma_me=1 trellis=0 8x8dct=1 cqm=0 deadzone=21,11 fast_pskip=1 chroma_qp_offset=0 threads=11 lookahead_threads=2 sliced_threads=0 nr=0 decimate=1 interlaced=0 bluray_compat=0 constrained_intra=0 bframes=3 b_pyramid=2 b_adapt=1 b_bias=0 direct=1 weightb=1 open_gop=0 weightp=1 keyint=250 keyint_min=25 scenecut=40 intra_refresh=0 rc_lookahead=10 rc=crf mbtree=1 crf=18.0 qcomp=0.60 qpmin=0 qpmax=69 qpstep=4 ip_ratio=1.40 aq=1:1.00
Output #0, mp4, to '/var/www/html/clients/5955/video/C9720C77-248C-3AC8-2B10-691667D0EE37.mp4':
  Metadata:
    encoder         : Lavf59.34.101
  Stream #0:0: Audio: aac (LC) (mp4a / 0x6134706D), 44100 Hz, stereo, fltp, 128 kb/s
    Metadata:
      encoder         : Lavc59.52.101 aac
  Stream #0:1: Video: h264 (avc1 / 0x31637661), yuv420p(progressive), 640x360 [SAR 1:1 DAR 16:9], q=2-31, 30 fps, 15360 tbn
    Metadata:
      encoder         : Lavc59.52.101 libx264
    Side data:
      cpb: bitrate max/min/avg: 0/0/0 buffer size: 0 vbv_delay: N/A
frame=    0 fps=0.0 q=0.0 size=       0kB time=-577014:32:22.77 bitrate=  -0.0kbits/s speed=N/A    
frame=  102 fps=0.0 q=24.0 size=       0kB time=00:00:04.13 bitrate=   0.1kbits/s speed=7.84x    
frame=  269 fps=262 q=24.0 size=     512kB time=00:00:09.70 bitrate= 432.2kbits/s speed=9.44x    
frame=  423 fps=276 q=24.0 size=     512kB time=00:00:14.83 bitrate= 282.7kbits/s speed=9.69x    
frame=  583 fps=287 q=24.0 size=     768kB time=00:00:20.15 bitrate= 312.2kbits/s speed= 9.9x    
frame=  730 fps=288 q=24.0 size=     768kB time=00:00:25.07 bitrate= 250.9kbits/s speed=9.89x    
frame=  887 fps=292 q=24.0 size=    1536kB time=00:00:30.30 bitrate= 415.3kbits/s speed=9.98x    
frame= 1060 fps=300 q=24.0 size=    2304kB time=00:00:36.10 bitrate= 522.7kbits/s speed=10.2x    
frame= 1235 fps=306 q=24.0 size=    2304kB time=00:00:41.88 bitrate= 450.6kbits/s speed=10.4x    
frame= 1402 fps=309 q=24.0 size=    2816kB time=00:00:47.48 bitrate= 485.8kbits/s speed=10.5x    
frame= 1587 fps=315 q=24.0 size=    3584kB time=00:00:53.66 bitrate= 547.1kbits/s speed=10.6x    
frame= 1736 fps=313 q=24.0 size=    3584kB time=00:00:58.65 bitrate= 500.6kbits/s speed=10.6x    
frame= 1801 fps=319 q=-1.0 Lsize=    4496kB time=00:00:59.97 bitrate= 614.1kbits/s speed=10.6x    
video:3504kB audio:963kB subtitle:0kB other streams:0kB global headers:0kB muxing overhead: 0.650429%
[aac @ 0x3743240] Qavg: 949.054
[libx264 @ 0x3741dc0] frame I:9     Avg QP:14.21  size: 27578
[libx264 @ 0x3741dc0] frame P:489   Avg QP:19.86  size:  5999
[libx264 @ 0x3741dc0] frame B:1303  Avg QP:22.49  size:   312
[libx264 @ 0x3741dc0] consecutive B-frames:  2.3%  1.6%  6.7% 89.5%
[libx264 @ 0x3741dc0] mb I  I16..4: 30.7% 15.5% 53.8%
[libx264 @ 0x3741dc0] mb P  I16..4:  3.0%  3.9%  4.8%  P16..4: 35.7% 10.8%  5.0%  0.0%  0.0%    skip:36.8%
[libx264 @ 0x3741dc0] mb B  I16..4:  0.3%  0.3%  0.0%  B16..8:  3.4%  0.6%  0.0%  direct: 3.9%  skip:91.6%  L0:35.6% L1:43.3% BI:21.1%
[libx264 @ 0x3741dc0] 8x8 transform intra:32.8% inter:35.4%
[libx264 @ 0x3741dc0] coded y,uvDC,uvAC intra: 69.3% 32.8% 10.0% inter: 7.2% 3.0% 0.3%
[libx264 @ 0x3741dc0] i16 v,h,dc,p: 30% 49% 13%  7%
[libx264 @ 0x3741dc0] i8 v,h,dc,ddl,ddr,vr,hd,vl,hu: 13% 36% 18%  5%  5%  4%  7%  4%  8%
[libx264 @ 0x3741dc0] i4 v,h,dc,ddl,ddr,vr,hd,vl,hu: 14% 33% 10%  7%  8%  6%  8%  6%  9%
[libx264 @ 0x3741dc0] i8c dc,h,v,p: 60% 26% 12%  2%
[libx264 @ 0x3741dc0] Weighted P-Frames: Y:5.5% UV:3.7%
[libx264 @ 0x3741dc0] kb/s:478.10